Скачать через торрент музыку American Dog - Poison Smile - 2012, FLAC бесплатно без регистрации torrent

Если у вас наблюдаются проблемы со скриншотами, переходом по ссылками, скачиванием торрентов - проблемы в блокировщике рекламы AdBlock. #хорошегоДня!


Статистика раздачи
Размер:  302 MB   |    Зарегистрирован:  5 лет 1 месяц   |    .torrent скачан:  13 раз   |   
Раздают:  1  
   
Загрузка...
 
Автор Сообщение

Umakiro

avatar Umakiro


American Dog / Poison Smile

Жанр: Hard Rock
Год издания: 2012
Издатель (лейбл): Bad Reputation
Номер по каталогу: BAD0120502
Страна: USA
Аудиокодек: FLAC (*.flac)
Тип рипа: tracks+.cue
Битрейт аудио: lossless
Продолжительность: 40:16
Источник (релизер): Lamf77 (Demonoid.me)
Наличие сканов в содержимом раздачи: нет

Треклист:
01. Devil Dog
02. Just Like Charlie Sheen
03. Old Dog, New Tricks
04. The Real Nitty Gritty
05. 2012 A.D.
06. Poison Smile
07. Lust and Greed
08. Bathroom Romance
09. Splinterin' Sally
10. Off the Chain
11. Can Your Pussy Do the Dog?
  
Exact Audio Copy V0.99 prebeta 5 from 4. May 2009

EAC extraction logfile from 1. June 2012, 7:48

AMERICAN DOG / POISON SMILE

Used drive : ASUS DRW-24B1ST a Adapter: 1 ID: 0

Read mode : SecureUtilize accurate stream : YesDefeat audio cache : NoMake use of C2 pointers : Yes

Read offset correction : 6Overread into Lead-In and Lead-Out : NoFill up missing offset samples with silence : YesDelete leading and trailing silent blocks : NoNull samples used in CRC calculations : YesUsed interface : Native Win32 interface for Win NT & 2000Gap handling : Not detected, thus appended to previous track

Used output format : User Defined EncoderSelected bitrate : 128 kBit/sQuality : HighAdd ID3 tag : NoCommand line compressor : C:\Program Files (x86)\FLAC\flac.exeAdditional command line options : -V -8 -T "artist=%a" -T "title=%t" -T "album=%g" -T "date=%y" -T "tracknumber=%n" -T "genre=%m" %s

TOC of the extracted CD

Track | Start | Length | Start sector | End sector --------------------------------------------------------- 1 | 0:00.00 | 2:52.28 | 0 | 12927 2 | 2:52.28 | 2:54.49 | 12928 | 26026 3 | 5:47.02 | 4:29.42 | 26027 | 46243 4 | 10:16.44 | 4:56.07 | 46244 | 68450 5 | 15:12.51 | 2:41.28 | 68451 | 80553 6 | 17:54.04 | 4:11.67 | 80554 | 99445 7 | 22:05.71 | 3:03.05 | 99446 | 113175 8 | 25:09.01 | 3:23.30 | 113176 | 128430 9 | 28:32.31 | 3:19.11 | 128431 | 143366 10 | 31:51.42 | 3:05.69 | 143367 | 157310 11 | 34:57.36 | 5:19.17 | 157311 | 181252

Track 1

Filename C:\Users\MIKE\Desktop\A_D_G POISON\01 - Devil Dog.wav

Peak level 99.3 % Track quality 100.0 % Copy CRC FFCD759F Track not present in AccurateRip database Copy OK

Track 2

Filename C:\Users\MIKE\Desktop\A_D_G POISON\02 - Just Like Charlie Sheen.wav

Peak level 99.3 % Track quality 99.8 % Copy CRC 9B9F7299 Track not present in AccurateRip database Copy OK

Track 3

Filename C:\Users\MIKE\Desktop\A_D_G POISON\03 - Old Dog New Tricks.wav

Peak level 99.3 % Track quality 100.0 % Copy CRC 15E37DF6 Track not present in AccurateRip database Copy OK

Track 4

Filename C:\Users\MIKE\Desktop\A_D_G POISON\04 - The Real Nitty Gritty.wav

Peak level 99.3 % Track quality 99.9 % Copy CRC DDCF923D Track not present in AccurateRip database Copy OK

Track 5

Filename C:\Users\MIKE\Desktop\A_D_G POISON\05 - 2012 A.d.wav

Peak level 99.3 % Track quality 100.0 % Copy CRC 2409ED94 Track not present in AccurateRip database Copy OK

Track 6

Filename C:\Users\MIKE\Desktop\A_D_G POISON\06 - Poison Smile.wav

Peak level 99.3 % Track quality 100.0 % Copy CRC 55B49DA8 Track not present in AccurateRip database Copy OK

Track 7

Filename C:\Users\MIKE\Desktop\A_D_G POISON\07 - Lust and Greed.wav

Peak level 99.3 % Track quality 100.0 % Copy CRC CCE098BB Track not present in AccurateRip database Copy OK

Track 8

Filename C:\Users\MIKE\Desktop\A_D_G POISON\08 - Bathroom Romance.wav

Peak level 99.3 % Track quality 100.0 % Copy CRC CA098BD7 Track not present in AccurateRip database Copy OK

Track 9

Filename C:\Users\MIKE\Desktop\A_D_G POISON\09 - Splinterin Sally.wav

Peak level 99.3 % Track quality 100.0 % Copy CRC 9322370F Track not present in AccurateRip database Copy OK

Track 10

Filename C:\Users\MIKE\Desktop\A_D_G POISON\10 - Off the Chain.wav

Peak level 99.3 % Track quality 100.0 % Copy CRC 8246FF0A Track not present in AccurateRip database Copy OK

Track 11

Filename C:\Users\MIKE\Desktop\A_D_G POISON\11 - Can Your Pussy Do the Dog.wav

Peak level 99.3 % Track quality 100.0 % Copy CRC DC013331 Track not present in AccurateRip database Copy OK

None of the tracks are present in the AccurateRip database

No errors occurred

End of status report
  
REM DISCID 8D09700BREM COMMENT "ExactAudioCopy v0.99pb5"PERFORMER "AMERICAN DOG"TITLE "POISON SMILE"FILE "01 - Devil Dog.wav" WAVE TRACK 01 AUDIO TITLE "Devil Dog" PERFORMER "AMERICAN DOG" INDEX 01 00:00:00FILE "02 - Just Like Charlie Sheen.wav" WAVE TRACK 02 AUDIO TITLE "Just Like Charlie Sheen" PERFORMER "AMERICAN DOG" INDEX 01 00:00:00FILE "03 - Old Dog New Tricks.wav" WAVE TRACK 03 AUDIO TITLE "Old Dog New Tricks" PERFORMER "AMERICAN DOG" INDEX 01 00:00:00FILE "04 - The Real Nitty Gritty.wav" WAVE TRACK 04 AUDIO TITLE "The Real Nitty Gritty" PERFORMER "AMERICAN DOG" INDEX 01 00:00:00FILE "05 - 2012 A.d.wav" WAVE TRACK 05 AUDIO TITLE "2012 A.d" PERFORMER "AMERICAN DOG" INDEX 01 00:00:00FILE "06 - Poison Smile.wav" WAVE TRACK 06 AUDIO TITLE "Poison Smile" PERFORMER "AMERICAN DOG" INDEX 01 00:00:00FILE "07 - Lust and Greed.wav" WAVE TRACK 07 AUDIO TITLE "Lust and Greed" PERFORMER "AMERICAN DOG" INDEX 01 00:00:00FILE "08 - Bathroom Romance.wav" WAVE TRACK 08 AUDIO TITLE "Bathroom Romance" PERFORMER "AMERICAN DOG" INDEX 01 00:00:00FILE "09 - Splinterin Sally.wav" WAVE TRACK 09 AUDIO TITLE "Splinterin Sally" PERFORMER "AMERICAN DOG" INDEX 01 00:00:00FILE "10 - Off the Chain.wav" WAVE TRACK 10 AUDIO TITLE "Off the Chain" PERFORMER "AMERICAN DOG" INDEX 01 00:00:00FILE "11 - Can Your Pussy Do the Dog.wav" WAVE TRACK 11 AUDIO TITLE "Can Your Pussy Do the Dog" PERFORMER "AMERICAN DOG" INDEX 01 00:00:00
  
-----------------------

DON'T MODIFY THIS FILE

-----------------------

PERFORMER: auCDtect Task Manager, ver. 1.5.1RC4 build 1.5.1.5Copyright (c) 2008-2010 y-soft. All rights reservedhttp://y-soft.org

ANALYZER: auCDtect: CD records authenticity detector, version 0.8.2Copyright (c) 2004 Oleg Berngardt. All rights reserved.Copyright (c) 2004 Alexander Djourik. All rights reserved.

FILE: 11 - Can Your Pussy Do the Dog.flac Size: 39415984 Hash: 05B40B0F1185E8E008BA8621EDC8ECE8 Accuracy: -m0 Conclusion: CDDA 100% Signature: 8FEF98AC794AA152AED39E266213F33876934089FILE: 10 - Off the Chain.flac Size: 25235058 Hash: FC348C2B3F16A35426119B3A363FFC8A Accuracy: -m0 Conclusion: CDDA 100% Signature: 1F3499D994D656C87F6EA9BD822651BEA76EDD68FILE: 09 - Splinterin Sally.flac Size: 27191011 Hash: C034FD9B29CAB8DE201A5E8845690AA5 Accuracy: -m0 Conclusion: CDDA 100% Signature: 08684B67FF054236B4AB7D21EC787CE48965D291FILE: 08 - Bathroom Romance.flac Size: 26793728 Hash: 25E200B3291873C9D261FD1D1C3AF875 Accuracy: -m0 Conclusion: CDDA 100% Signature: A5FCE12BFB16AB96694856073C3574E7F74F61ECFILE: 07 - Lust and Greed.flac Size: 25537456 Hash: 0EBCFF6081A85381824F62CE95CE89B9 Accuracy: -m0 Conclusion: CDDA 100% Signature: 2DDCF7EF07F660D13F1094C3D00CF7F46F6B51C7FILE: 06 - Poison Smile.flac Size: 31029458 Hash: FC4DA3D523C97C607A23FCFEA7A782AA Accuracy: -m0 Conclusion: CDDA 100% Signature: 11BADDDBF545F9D658EA3F1C3B95DFE65E922FBDFILE: 05 - 2012 A.d.flac Size: 15497359 Hash: 4B60C52B7B680CA25E3EC5AFD1C3E665 Accuracy: -m0 Conclusion: CDDA 100% Signature: A65B33EF1D539151425453E25DAE204B0E5FD8AFFILE: 04 - The Real Nitty Gritty.flac Size: 40920854 Hash: 1B802B652726E554903F8F2BA25C1CE6 Accuracy: -m0 Conclusion: CDDA 99% Signature: C4EE600EBE4006CA5737AE5AFBBDBC96EE6F0827FILE: 03 - Old Dog New Tricks.flac Size: 36681182 Hash: A404A7840895F48F35FAE0AA5F633A87 Accuracy: -m0 Conclusion: CDDA 99% Signature: 3F85B7C5B0900C92EC75F1B4763A90354E7EA401FILE: 02 - Just Like Charlie Sheen.flac Size: 24013142 Hash: 72EB5FFF7A1CEC76C831D52FF094FBF6 Accuracy: -m0 Conclusion: CDDA 99% Signature: 83618456D73567E85A09EC7436EBD97684B65441FILE: 01 - Devil Dog.flac Size: 24558458 Hash: 2D24474F0ED2531AEE208193D0E47C84 Accuracy: -m0 Conclusion: CDDA 100% Signature: ADBE2A15626C3FDDAB7F3DA6D567FDA70E3B1420
Latest release from the hard rockin', kick ass, beer drinkin' Ohio Trio.
Arguably their best release to date. Blending the best of hard rocking bands like Motorhead, Ted Nugent, Skynyrd, AC/DC & ZZ Top with their own Midwestern, no nonsense, kick ass, take no prisoners attitude.
Killer cover of The Cramps "Can Your Pussy Do The Dog".
Support the band and head over to http://www.americandog.us/ and buy a shit load of stuff! The T-Shirts are way too cool!
Michael Harris : Drums, Back Vocals
Steve Theado : Guitar, Back Vocals
Michael Hannon : Vocals, Bass


Трекер:  [ 03-Июл-2012 17:48 ]

  

Скачать .torrent

Размер .torrent файла 13 KB


Размер: 302 MB
Хэш (hash) релиза: a3b1d8b2a0fb62a5597f2310b39fc2156b63f5df

Еще никто не оставлял запись к записи скачать торрент American Dog - Poison Smile - 2012, FLAC . Будь первым!

!Обратная связь