Скачать через торрент музыку DeWolff - DeWolff IV - 2012, FLAC бесплатно без регистрации torrent

Если у вас наблюдаются проблемы со скриншотами, переходом по ссылками, скачиванием торрентов - проблемы в блокировщике рекламы AdBlock. #хорошегоДня!


Статистика раздачи
Размер:  270 MB   |    Зарегистрирован:  5 лет 3 месяца   |    .torrent скачан:  6 раз   |   
Раздают:  1  
   
Загрузка...
 
Автор Сообщение

Umakiro

avatar Umakiro


DeWolff / DeWolff IV

Жанр: Psychedelic Hard Rock
Страна-производитель диска: REMusic Records
Год издания: 2012
Издатель (лейбл): REMusic Records
Номер по каталогу: 28031
Страна: Netherlands
Аудиокодек: FLAC (*.flac)
Тип рипа: tracks+.cue
Битрейт аудио: lossless
Продолжительность: 00:42:51
Источник (релизер): what.cd (Zappmaster)
Наличие сканов в содержимом раздачи: да (Back, Front из сети)
Треклист:
01. Voodoo Mademoiselle (3:03)
02. Six Holes And A Ghost (4:50)
03. Devil's Due (4:15)
04. Crumbling Heart (3:19)
05. The Only Thornless Rose (3:31)
06. Northbound (4:28)
07. Devil On A Wire/The Telephone (5:34)
08. Black Hole Raga (2:53)
09. Sixth Dimension Blues/The Telephone Pt. II (5:05)
10. Astral Awareness (2:03)
11. Vicious Times (3:50)
  
Exact Audio Copy V1.0 beta 1 from 15. November 2010

EAC extraction logfile from 14. June 2012, 16:29

DeWolff / DeWolff IV

Used drive : TSSTcorpCDDVDW SH-S223C Adapter: 3 ID: 0

Read mode : SecureUtilize accurate stream : YesDefeat audio cache : YesMake use of C2 pointers : No

Read offset correction : 697Overread into Lead-In and Lead-Out : NoFill up missing offset samples with silence : YesDelete leading and trailing silent blocks : NoNull samples used in CRC calculations : YesUsed interface : Native Win32 interface for Win NT & 2000Gap handling : Appended to previous track

Used output format : User Defined EncoderSelected bitrate : 320 kBit/sQuality : HighAdd ID3 tag : NoCommand line compressor : C:\Program Files (x86)\Exact Audio Copy\FLAC\FLAC.EXEAdditional command line options : -V -8 -T "artist=%a" -T "title=%t" -T "album=%g" -T "date=%y" -T "tracknumber=%n" -T "genre=%m" %s

TOC of the extracted CD

Track | Start | Length | Start sector | End sector --------------------------------------------------------- 1 | 0:00.00 | 3:02.55 | 0 | 13704 2 | 3:02.55 | 4:49.43 | 13705 | 35422 3 | 7:52.23 | 4:15.28 | 35423 | 54575 4 | 12:07.51 | 3:19.24 | 54576 | 69524 5 | 15:27.00 | 3:31.29 | 69525 | 85378 6 | 18:58.29 | 4:27.50 | 85379 | 105453 7 | 23:26.04 | 5:33.64 | 105454 | 130492 8 | 28:59.68 | 2:53.15 | 130493 | 143482 9 | 31:53.08 | 5:05.22 | 143483 | 166379 10 | 36:58.30 | 2:02.60 | 166380 | 175589 11 | 39:01.15 | 3:49.58 | 175590 | 192822

Track 1

Filename F:\EACrips\DeWolff - DeWolff IV [2012]\01 - DeWolff - Voodoo Mademoiselle.wav

Pre-gap length 0:00:02.00

Peak level 99.9 % Extraction speed 1.9 X Track quality 100.0 % Test CRC 60D9DB92 Copy CRC 60D9DB92 Track not present in AccurateRip database Copy OK

Track 2

Filename F:\EACrips\DeWolff - DeWolff IV [2012]\02 - DeWolff - Six Holes And A Ghost.wav

Pre-gap length 3:01:56.25

Peak level 99.9 % Extraction speed 2.0 X Track quality 99.9 % Test CRC ED49993E Copy CRC ED49993E Track not present in AccurateRip database Copy OK

Track 3

Filename F:\EACrips\DeWolff - DeWolff IV [2012]\03 - DeWolff - Devil's Due.wav

Peak level 99.9 % Extraction speed 2.1 X Track quality 99.9 % Test CRC A16FB4A3 Copy CRC A16FB4A3 Track not present in AccurateRip database Copy OK

Track 4

Filename F:\EACrips\DeWolff - DeWolff IV [2012]\04 - DeWolff - Crumbling Heart.wav

Pre-gap length 2:24:03.92

Peak level 99.9 % Extraction speed 2.5 X Track quality 100.0 % Test CRC 2B5986B5 Copy CRC 2B5986B5 Track not present in AccurateRip database Copy OK

Track 5

Filename F:\EACrips\DeWolff - DeWolff IV [2012]\05 - DeWolff - The Only Thornless Rose.wav

Pre-gap length 2:47:05.53

Peak level 99.9 % Extraction speed 2.6 X Track quality 100.0 % Test CRC 5A7B1B9C Copy CRC 5A7B1B9C Track not present in AccurateRip database Copy OK

Track 6

Filename F:\EACrips\DeWolff - DeWolff IV [2012]\06 - DeWolff - Northbound.wav

Peak level 99.9 % Extraction speed 2.9 X Track quality 100.0 % Test CRC 6D13D547 Copy CRC 6D13D547 Track not present in AccurateRip database Copy OK

Track 7

Filename F:\EACrips\DeWolff - DeWolff IV [2012]\07 - DeWolff - Devil On A Wire,The Telephone.wav

Pre-gap length 6:10:05.92

Peak level 99.9 % Extraction speed 3.2 X Track quality 100.0 % Test CRC 0BB80967 Copy CRC 0BB80967 Track not present in AccurateRip database Copy OK

Track 8

Filename F:\EACrips\DeWolff - DeWolff IV [2012]\08 - DeWolff - Black Hole Raga.wav

Pre-gap length 4:01:17.90

Peak level 99.9 % Extraction speed 3.0 X Track quality 100.0 % Test CRC 235F6870 Copy CRC 235F6870 Track not present in AccurateRip database Copy OK

Track 9

Filename F:\EACrips\DeWolff - DeWolff IV [2012]\09 - DeWolff - Sixth Dimension Blues,The Telephone Pt. II.wav

Pre-gap length 5:41:23.21

Peak level 99.9 % Extraction speed 3.3 X Track quality 100.0 % Test CRC 50AD4415 Copy CRC 50AD4415 Track not present in AccurateRip database Copy OK

Track 10

Filename F:\EACrips\DeWolff - DeWolff IV [2012]\10 - DeWolff - Astral Awareness.wav

Pre-gap length 9:07:33.78

Peak level 87.4 % Extraction speed 3.0 X Track quality 100.0 % Test CRC DA00D580 Copy CRC DA00D580 Track not present in AccurateRip database Copy OK

Track 11

Filename F:\EACrips\DeWolff - DeWolff IV [2012]\11 - DeWolff - Vicious Times.wav

Pre-gap length 8:22:37.60

Peak level 99.9 % Extraction speed 3.5 X Track quality 100.0 % Test CRC 59C30315 Copy CRC 59C30315 Track not present in AccurateRip database Copy OK

None of the tracks are present in the AccurateRip database

No errors occurred

End of status report

==== Log checksum 87FEE50306E78D81DE76340096B0FD67B91B47E9BA33CB412C46D555B0611F2A ====
  
REM GENRE "Psychedelic Rock"REM DATE 2012REM DISCID 860A0A0BREM COMMENT "ExactAudioCopy v1.0b1"PERFORMER "DeWolff"TITLE "DeWolff IV"FILE "01 - DeWolff - Voodoo Mademoiselle.flac" WAVE TRACK 01 AUDIO INDEX 01 00:00:00 TRACK 02 AUDIO INDEX 00 32:07:36FILE "02 - DeWolff - Six Holes And A Ghost.wav" WAVE INDEX 01 00:00:00FILE "03 - DeWolff - Devil's Due.wav" WAVE TRACK 03 AUDIO INDEX 01 00:00:00 TRACK 04 AUDIO INDEX 00 71:12:34FILE "04 - DeWolff - Crumbling Heart.wav" WAVE INDEX 01 00:00:00 TRACK 05 AUDIO INDEX 00 47:14:59FILE "05 - DeWolff - The Only Thornless Rose.wav" WAVE INDEX 01 00:00:00FILE "06 - DeWolff - Northbound.wav" WAVE TRACK 06 AUDIO INDEX 01 00:00:00 TRACK 07 AUDIO INDEX 00 45:22:56FILE "07 - DeWolff - Devil On A Wire,The Telephone.wav" WAVE INDEX 01 00:00:00 TRACK 08 AUDIO INDEX 00 75:16:71FILE "08 - DeWolff - Black Hole Raga.wav" WAVE INDEX 01 00:00:00 TRACK 09 AUDIO INDEX 00 72:30:74FILE "09 - DeWolff - Sixth Dimension Blues,The Telephone Pt. II.wav" WAVE INDEX 01 00:00:00 TRACK 10 AUDIO INDEX 00 68:32:38FILE "10 - DeWolff - Astral Awareness.wav" WAVE INDEX 01 00:00:00 TRACK 11 AUDIO INDEX 00 00:26:15FILE "11 - DeWolff - Vicious Times.wav" WAVE INDEX 01 00:00:00


Трекер:  [ 03-Июл-2012 17:47 ]

  

Скачать .torrent

Размер .torrent файла 12 KB


Размер: 270 MB
Хэш (hash) релиза: 178cc0b58aaa054cdd3baa84645f896555ad6910

Еще никто не оставлял запись к записи скачать торрент DeWolff - DeWolff IV - 2012, FLAC . Будь первым!

!Обратная связь