Скачать через торрент музыку Little Feat - Rooster Rag - 2012, FLAC бесплатно без регистрации torrent

Если у вас наблюдаются проблемы со скриншотами, переходом по ссылками, скачиванием торрентов - проблемы в блокировщике рекламы AdBlock. #хорошегоДня!


Статистика раздачи
Размер:  596 MB   |    Зарегистрирован:  5 лет 1 месяц   |    .torrent скачан:  18 раз   |   
Раздают:  1  
   
Загрузка...
 
Автор Сообщение

Umakiro

avatar Umakiro


Little Feat / Rooster Rag

Жанр: Southern-Rock/Blues-Rock
Год издания: 2012
Издатель (лейбл): Rounder / Hot Tomato Records
Номер по каталогу: 11661-9149-2
Аудиокодек: FLAC (*.flac)
Тип рипа: tracks+.cue
Битрейт аудио: lossless
Продолжительность: 58:05
Источник (релизер): Источник - Вата, релизер - xkm
Наличие сканов в содержимом раздачи: да
Треклист:
1. Candy Man Blues
2. Rooster Rag
3. Church Falling Down
4. Salome
5. One Breath at a Time
6. Just a Fever
7. Rag Top Down
8. Way Down Under
9. Jamaica Will Break Your Heart
10. Tattooed Girl
11. The Blues Keep Coming
12. Mellow Down Easy
  
Exact Audio Copy V1.0 beta 3 from 29. August 2011

EAC extraction logfile from 25. June 2012, 11:16

Little Feat / Rooster Rag

Used drive : PIONEER DVD-RW DVR-111D Adapter: 1 ID: 0

Read mode : SecureUtilize accurate stream : YesDefeat audio cache : YesMake use of C2 pointers : No

Read offset correction : 48Overread into Lead-In and Lead-Out : NoFill up missing offset samples with silence : YesDelete leading and trailing silent blocks : NoNull samples used in CRC calculations : YesUsed interface : Native Win32 interface for Win NT & 2000Gap handling : Appended to previous track

Used output format : User Defined EncoderSelected bitrate : 768 kBit/sQuality : HighAdd ID3 tag : NoCommand line compressor : C:\Program Files\Exact Audio Copy1.0b3\FLAC\FLAC.EXEAdditional command line options : -8 -V -T "ARTIST=%artist%" -T "TITLE=%title%" -T "ALBUM=%albumtitle%" -T "DATE=%year%" -T "TRACKNUMBER=%tracknr%" -T "TOTALTRACKS=%numtracks%" -T "GENRE=%genre%" -T "ALBUMARTIST=%albumartist%" -T "ALBUM ARTIST=%albumartist%" -T "COMMENT=EAC Secure Mode, Test & Copy, AccurateRip, FLAC -8" %source%

TOC of the extracted CD

Track | Start | Length | Start sector | End sector --------------------------------------------------------- 1 | 0:00.00 | 3:04.47 | 0 | 13846 2 | 3:04.47 | 4:35.57 | 13847 | 34528 3 | 7:40.29 | 5:21.70 | 34529 | 58673 4 | 13:02.24 | 6:31.45 | 58674 | 88043 5 | 19:33.69 | 5:17.21 | 88044 | 111839 6 | 24:51.15 | 4:23.63 | 111840 | 131627 7 | 29:15.03 | 5:25.60 | 131628 | 156062 8 | 34:40.63 | 4:05.66 | 156063 | 174503 9 | 38:46.54 | 4:24.61 | 174504 | 194364 10 | 43:11.40 | 4:53.60 | 194365 | 216399 11 | 48:05.25 | 5:50.70 | 216400 | 242719 12 | 53:56.20 | 4:08.25 | 242720 | 261344

Track 1

Filename S:\uTorrent DL\Little Feat - Rooster Rag (2012) [FLAC]\01 - Candy Man Blues.wav

Pre-gap length 0:00:02.00

Peak level 97.7 % Extraction speed 4.4 X Track quality 100.0 % Test CRC 592278CA Copy CRC 592278CA Track not present in AccurateRip database Copy OK

Track 2

Filename S:\uTorrent DL\Little Feat - Rooster Rag (2012) [FLAC]\02 - Rooster Rag.wav

Peak level 96.6 % Extraction speed 5.1 X Track quality 100.0 % Test CRC F8D9F236 Copy CRC F8D9F236 Track not present in AccurateRip database Copy OK

Track 3

Filename S:\uTorrent DL\Little Feat - Rooster Rag (2012) [FLAC]\03 - Church Falling Down.wav

Peak level 95.5 % Extraction speed 5.6 X Track quality 100.0 % Test CRC 170C09F9 Copy CRC 170C09F9 Track not present in AccurateRip database Copy OK

Track 4

Filename S:\uTorrent DL\Little Feat - Rooster Rag (2012) [FLAC]\04 - Salome.wav

Peak level 96.6 % Extraction speed 6.3 X Track quality 100.0 % Test CRC 11122760 Copy CRC 11122760 Track not present in AccurateRip database Copy OK

Track 5

Filename S:\uTorrent DL\Little Feat - Rooster Rag (2012) [FLAC]\05 - One Breath at a Time.wav

Peak level 98.8 % Extraction speed 6.6 X Track quality 100.0 % Test CRC 0AB34AAF Copy CRC 0AB34AAF Track not present in AccurateRip database Copy OK

Track 6

Filename S:\uTorrent DL\Little Feat - Rooster Rag (2012) [FLAC]\06 - Just a Fever.wav

Peak level 97.7 % Extraction speed 6.7 X Track quality 100.0 % Test CRC 5CDF8A3F Copy CRC 5CDF8A3F Track not present in AccurateRip database Copy OK

Track 7

Filename S:\uTorrent DL\Little Feat - Rooster Rag (2012) [FLAC]\07 - Rag Top Down.wav

Peak level 98.3 % Extraction speed 7.2 X Track quality 100.0 % Test CRC 3FBB71C8 Copy CRC 3FBB71C8 Track not present in AccurateRip database Copy OK

Track 8

Filename S:\uTorrent DL\Little Feat - Rooster Rag (2012) [FLAC]\08 - Way Down Under.wav

Peak level 98.2 % Extraction speed 7.3 X Track quality 100.0 % Test CRC AC276A1F Copy CRC AC276A1F Track not present in AccurateRip database Copy OK

Track 9

Filename S:\uTorrent DL\Little Feat - Rooster Rag (2012) [FLAC]\09 - Jamaica Will Break Your Heart.wav

Peak level 97.7 % Extraction speed 7.6 X Track quality 100.0 % Test CRC A581B98B Copy CRC A581B98B Track not present in AccurateRip database Copy OK

Track 10

Filename S:\uTorrent DL\Little Feat - Rooster Rag (2012) [FLAC]\10 - Tattooed Girl.wav

Peak level 97.7 % Extraction speed 6.8 X Track quality 99.9 % Test CRC D52ACC1B Copy CRC D52ACC1B Track not present in AccurateRip database Copy OK

Track 11

Filename S:\uTorrent DL\Little Feat - Rooster Rag (2012) [FLAC]\11 - The Blues Keep Coming.wav

Peak level 98.8 % Extraction speed 7.6 X Track quality 99.9 % Test CRC 73E9B1D3 Copy CRC 73E9B1D3 Track not present in AccurateRip database Copy OK

Track 12

Filename S:\uTorrent DL\Little Feat - Rooster Rag (2012) [FLAC]\12 - Mellow Down Easy.wav

Peak level 97.7 % Extraction speed 7.2 X Track quality 99.9 % Test CRC A8F89287 Copy CRC A8F89287 Track not present in AccurateRip database Copy OK

None of the tracks are present in the AccurateRip database

No errors occurred

End of status report

---- CUETools DB Plugin V2.1.3

[CTDB TOCID: g.zi56VWBfwkJquVzqs3OOJhrSo-] disk not present in database, Submit result: g.zi56VWBfwkJquVzqs3OOJhrSo- has been uploaded

==== Log checksum A44E33C56F451B5EFE9623B5B56F5991E12996EF84CB0C6D2B94B462CDE5F3E5 ====
  
REM GENRE BluesREM DATE 2012REM DISCID BA0D9C0CREM COMMENT "ExactAudioCopy v1.0b3"PERFORMER "Little Feat"TITLE "Rooster Rag"FILE "01 - Candy Man Blues.wav" WAVE TRACK 01 AUDIO TITLE "Candy Man Blues" PERFORMER "Little Feat" INDEX 01 00:00:00FILE "02 - Rooster Rag.wav" WAVE TRACK 02 AUDIO TITLE "Rooster Rag" PERFORMER "Little Feat" INDEX 01 00:00:00FILE "03 - Church Falling Down.wav" WAVE TRACK 03 AUDIO TITLE "Church Falling Down" PERFORMER "Little Feat" INDEX 01 00:00:00FILE "04 - Salome.wav" WAVE TRACK 04 AUDIO TITLE "Salome" PERFORMER "Little Feat" INDEX 01 00:00:00FILE "05 - One Breath at a Time.wav" WAVE TRACK 05 AUDIO TITLE "One Breath at a Time" PERFORMER "Little Feat" INDEX 01 00:00:00FILE "06 - Just a Fever.wav" WAVE TRACK 06 AUDIO TITLE "Just a Fever" PERFORMER "Little Feat" INDEX 01 00:00:00FILE "07 - Rag Top Down.wav" WAVE TRACK 07 AUDIO TITLE "Rag Top Down" PERFORMER "Little Feat" INDEX 01 00:00:00FILE "08 - Way Down Under.wav" WAVE TRACK 08 AUDIO TITLE "Way Down Under" PERFORMER "Little Feat" INDEX 01 00:00:00FILE "09 - Jamaica Will Break Your Heart.wav" WAVE TRACK 09 AUDIO TITLE "Jamaica Will Break Your Heart" PERFORMER "Little Feat" INDEX 01 00:00:00FILE "10 - Tattooed Girl.wav" WAVE TRACK 10 AUDIO TITLE "Tattooed Girl" PERFORMER "Little Feat" INDEX 01 00:00:00FILE "11 - The Blues Keep Coming.wav" WAVE TRACK 11 AUDIO TITLE "The Blues Keep Coming" PERFORMER "Little Feat" INDEX 01 00:00:00FILE "12 - Mellow Down Easy.wav" WAVE TRACK 12 AUDIO TITLE "Mellow Down Easy" PERFORMER "Little Feat" INDEX 01 00:00:00
  
AUDIOCHECKER v2.0 beta (build 457) - by Dester - <a href="mailto:opdester@freemail.hu" class="postLink">opdester@freemail.hu</a>~~~~~~~~~~~~~~~~~~~~~~~~~~~~~~~~~~-=== DO NOT EDIT THIS FILE! ===-

Path: ...\Little Feat - Rooster Rag (2012)

01 -=- 01 - Candy Man Blues.flac -=- CDDA (99%)02 -=- 02 - Rooster Rag.flac -=- CDDA (100%)03 -=- 03 - Church Falling Down.flac -=- CDDA (100%)04 -=- 04 - Salome.flac -=- CDDA (100%)05 -=- 05 - One Breath at a Time.flac -=- CDDA (100%)06 -=- 06 - Just a Fever.flac -=- CDDA (100%)07 -=- 07 - Rag Top Down.flac -=- CDDA (100%)08 -=- 08 - Way Down Under.flac -=- CDDA (100%)09 -=- 09 - Jamaica Will Break Your Heart.flac -=- CDDA (100%)10 -=- 10 - Tattooed Girl.flac -=- CDDA (100%)11 -=- 11 - The Blues Keep Coming.flac -=- CDDA (100%)12 -=- 12 - Mellow Down Easy.flac -=- CDDA (100%)

Summary 99,92% CDDA

118306612
The June 26, 2012 release from Little Feat is the 15th album of original material by the blues rock veterans.

Rooster Rag is the band's first album of all new studio material since 2003's Kickin' It At The Barn.

Four of the songs were written by former Grateful Dead lyricist Robert Hunter - in collaboration with keyboard player Bill Payne - now the only musician to have played with every line-up of the group.

Surprisingly, Paul Barrere the group's main writer/singer has only been credited with writing on one track, but his usual co-author Fred Tackett contributes four songs, all of which have appeared on his solo albums but not all of which he sings lead on.

The song Candy Man Blues by Mississippi John Hurt has been done by the band live for some years and appeared on their 2005 collection Barnstormin' Live.
Little Feat is:

Paul Barrere - guitars, vocals
Sam Clayton - percussion, vocals
Gabriel Ford - drums
Ken Gradney - bass
Bill Payne - keyboards, vocals
Fred Tackett - guitar, mandolin, trumpet, vocals


Трекер:  [ 03-Июл-2012 17:47 ]

  

Скачать .torrent

Размер .torrent файла 13 KB


Размер: 596 MB
Хэш (hash) релиза: 111747797205aeb4348c881fb8e5663163d4b7cd

Еще никто не оставлял запись к записи скачать торрент Little Feat - Rooster Rag - 2012, FLAC . Будь первым!

!Обратная связь