Скачать через торрент музыку George Harrison with Eric Clapton And His Band - The Rock Legends Tour бесплатно без регистрации torrent

Если у вас наблюдаются проблемы со скриншотами, переходом по ссылками, скачиванием торрентов - проблемы в блокировщике рекламы AdBlock. #хорошегоДня!


Статистика раздачи
Размер:  903 MB   |    Зарегистрирован:  5 лет 4 месяца   |    .torrent скачан:  26 раз   |   
Раздают:  1  
   
Загрузка...
 
Автор Сообщение

Umakiro

avatar Umakiro


George Harrison with Eric Clapton And His Band / The Rock Legends Tour
(Tokyo Dome, Tokyo, Japan, December 17, 1991) [2 CD Booteg]

Жанр: Classic Rock / Страна-производитель диска: Italy
Год издания: 1992 / Издатель (лейбл): Mistral Music
Номер по каталогу: MM 9220 / 21 - Aud 3 / Страна: England
Аудиокодек: FLAC (*.flac) / Тип рипа: image+.cue
Битрейт аудио: lossless / Продолжительность: 02:24:27
Источник (релизер): Geetarz / Наличие сканов в содержимом раздачи:Front & Back
Треклист:
01. I Want To Tell You - 04:45
02. Old Brown Shoe - 03:51
03. Taxman - 04:49
04. Give Me Love - 03:46
05. If I Needed Someone - 04:13
06. Something - 05:31
07. What Is Life - 04:57
08. Dark Horse - 04:26
09. Piggies - 03:00
10. Eric's Blues - 01:10
11. Pretending - 06:02
12. Old Love - 10:49
13. Badge - 07:22
14. Wonderful Tonight - 09:45

Продолжительность – 01:14:27
  
Exact Audio Copy V0.99 prebeta 5 from 4. May 2009

Отчёт EAC об извлечении, выполненном 24. июня 2012, 12:57

George Harrison with Eric Clapton (and his band) / The Rock Legends Tour (CD 1)

Дисковод: ATAPI iHAP122 9 Adapter: 0 ID: 0

Режим чтения : ДостоверностьИспользование точного потока : ДаОтключение кэша аудио : ДаИспользование указателей C2 : Нет

Коррекция смещения при чтении : 6Способность читать области Lead-in и Lead-out : НетЗаполнение пропущенных сэмплов тишиной : ДаУдаление блоков с тишиной в начале и конце : НетПри вычислениях CRC использовались нулевые сэмплы : ДаИнтерфейс : Встроенный Win32-интерфейс для Win NT/2000

Выходной формат : Внутренние WAV-операцииФормат сэмплов : 44.100 Гц; 16 бит; стерео

TOC извлечённого CD

Трек | Старт | Длительность | Начальный сектор | Конечный сектор --------------------------------------------------------------------- 1 | 0:00.00 | 4:44.53 | 0 | 21352 2 | 4:44.53 | 3:51.07 | 21353 | 38684 3 | 8:35.60 | 4:49.13 | 38685 | 60372 4 | 13:24.73 | 3:45.72 | 60373 | 77319 5 | 17:10.70 | 4:13.20 | 77320 | 96314 6 | 21:24.15 | 5:31.08 | 96315 | 121147 7 | 26:55.23 | 4:57.02 | 121148 | 143424 8 | 31:52.25 | 4:26.45 | 143425 | 163419 9 | 36:18.70 | 3:00.03 | 163420 | 176922 10 | 39:18.73 | 1:09.72 | 176923 | 182169 11 | 40:28.70 | 6:01.73 | 182170 | 209317 12 | 46:30.68 | 10:49.10 | 209318 | 258002 13 | 57:20.03 | 7:21.57 | 258003 | 291134 14 | 64:41.60 | 9:44.55 | 291135 | 334989

Характеристики диапазона извлечения и сообщения об ошибках

Выбранный диапазон

Имя файла D:\Запись\George Harrison with Eric Clapton (and his band) - The Rock Legends Tour (2 CD)\CD 1\George Harrison with Eric Clapton (and his band) - The Rock Legends Tour (CD 1).wav

Пиковый уровень 88.5 % Качество диапазона 100.0 % CRC теста 8F671137 CRC копии 8F671137 Копирование... OK

Ошибок не произошло

AccurateRip: сводка

Трек 1 нет в базе данныхТрек 2 нет в базе данныхТрек 3 нет в базе данныхТрек 4 нет в базе данныхТрек 5 нет в базе данныхТрек 6 нет в базе данныхТрек 7 нет в базе данныхТрек 8 нет в базе данныхТрек 9 нет в базе данныхТрек 10 нет в базе данныхТрек 11 нет в базе данныхТрек 12 нет в базе данныхТрек 13 нет в базе данныхТрек 14 нет в базе данных

Ни одного трека нет в базе AccurateRip

Конец отчёта
  
AUDIOCHECKER v2.0 beta (build 457) - by Dester - <a href="mailto:opdester@freemail.hu" class="postLink">opdester@freemail.hu</a>~~~~~~~~~~~~~~~~~~~~~~~~~~~~~~~~~~

Started at: воскресенье, 24. 06. 2012. - 19:24.221 file found

1 -===- D:\Запись\George Harrison with Eric Clapton (and his band) - The Rock Legends Tour (2 CD)\CD 1\George Harrison with Eric Clapton (and his band) - The Rock Legends Tour.flac Extracted successfully Conclusion: this track is CDDA with probability 100% Tempfile successfully deleted.

Finished at: воскресенье, 24. 06. 2012. - 19:29.10 (operation time: 0:04.48)
01. Got My Mind Set On You - 05:04
02. Cloud Nine - 04:25
03. Here Comes The Sun - 03:31
04. My Sweet Lord - 05:52
05. All Those Years Ago - 05:01
06. Cheer Down - 04:19
07. Devil's Radio - 04:27
08. Isn't It A Pity - 07:43
09. While My Guitar Gently Weeps - 07:26
10. Roll Over Beethoven - 03:33
11. Intermezzo / Roll Over (Reprise) - 10:35
12. Fish On The Sand (Bonus tracks recorded in Yokohama, Japan on December 1, 1991) - 03:35
13. Love Comes To Everyone (Bonus tracks recorded in Yokohama, Japan on December 1, 1991) - 04:24

Продолжительность – 01:10:00
  
Exact Audio Copy V0.99 prebeta 5 from 4. May 2009

Отчёт EAC об извлечении, выполненном 24. июня 2012, 20:46

George Harrison with Eric Clapton (and his band) / The Rock Legends Tour (CD 2)

Дисковод: ATAPI iHAP122 9 Adapter: 0 ID: 0

Режим чтения : ДостоверностьИспользование точного потока : ДаОтключение кэша аудио : ДаИспользование указателей C2 : Нет

Коррекция смещения при чтении : 6Способность читать области Lead-in и Lead-out : НетЗаполнение пропущенных сэмплов тишиной : ДаУдаление блоков с тишиной в начале и конце : НетПри вычислениях CRC использовались нулевые сэмплы : ДаИнтерфейс : Встроенный Win32-интерфейс для Win NT/2000

Выходной формат : Внутренние WAV-операцииФормат сэмплов : 44.100 Гц; 16 бит; стерео

TOC извлечённого CD

Трек | Старт | Длительность | Начальный сектор | Конечный сектор --------------------------------------------------------------------- 1 | 0:00.00 | 5:04.47 | 0 | 22846 2 | 5:04.47 | 4:25.48 | 22847 | 42769 3 | 9:30.20 | 3:31.25 | 42770 | 58619 4 | 13:01.45 | 5:51.55 | 58620 | 84999 5 | 18:53.25 | 5:01.45 | 85000 | 107619 6 | 23:54.70 | 4:19.35 | 107620 | 127079 7 | 28:14.30 | 4:26.60 | 127080 | 147089 8 | 32:41.15 | 7:42.72 | 147090 | 181811 9 | 40:24.12 | 7:26.43 | 181812 | 215304 10 | 47:50.55 | 3:32.52 | 215305 | 231256 11 | 51:23.32 | 10:35.48 | 231257 | 278929 12 | 61:59.05 | 3:35.30 | 278930 | 295084 13 | 65:34.35 | 4:23.62 | 295085 | 314871

Характеристики диапазона извлечения и сообщения об ошибках

Выбранный диапазон

Имя файла D:\Запись\George Harrison with Eric Clapton (and his band) - The Rock Legends Tour (2 CD)\CD 2\George Harrison with Eric Clapton (and his band) - The Rock Legends Tour (CD 2).wav

Пиковый уровень 99.2 % Качество диапазона 99.9 % CRC теста 7255A80F CRC копии 7255A80F Копирование... OK

Ошибок не произошло

AccurateRip: сводка

Трек 1 нет в базе данныхТрек 2 нет в базе данныхТрек 3 нет в базе данныхТрек 4 нет в базе данныхТрек 5 нет в базе данныхТрек 6 нет в базе данныхТрек 7 нет в базе данныхТрек 8 нет в базе данныхТрек 9 нет в базе данныхТрек 10 нет в базе данныхТрек 11 нет в базе данныхТрек 12 нет в базе данныхТрек 13 нет в базе данных

Ни одного трека нет в базе AccurateRip

Конец отчёта
  
AUDIOCHECKER v2.0 beta (build 457) - by Dester - <a href="mailto:opdester@freemail.hu" class="postLink">opdester@freemail.hu</a>~~~~~~~~~~~~~~~~~~~~~~~~~~~~~~~~~~

Started at: воскресенье, 24. 06. 2012. - 21:08.251 file found

1 -===- D:\Запись\George Harrison with Eric Clapton (and his band) - The Rock Legends Tour (2 CD)\CD 2\George Harrison with Eric Clapton (and his band) - The Rock Legends Tour (CD 2).flac Extracted successfully Conclusion: this track is CDDA with probability 100% Tempfile successfully deleted.

Finished at: воскресенье, 24. 06. 2012. - 21:12.44 (operation time: 0:04.18)
George Harrison - Guitar, Vocals
Eric Clapton - Guitar, Vocals
Nathan East - Bass, Vocals
Steve Ferrone - Drums
Chuck Leavell - Keyboards
Greg Phillinganes - Keyboards
Ray Cooper - Percussion
Andy Fairweather Low - Guitar
Katie Kissoon - Backing Vocals
Tessa Niles - Backing Vocals



Трекер:  [ 03-Июл-2012 17:45 ]

  

Скачать .torrent

Размер .torrent файла 19 KB


Размер: 903 MB
Хэш (hash) релиза: 9a802359c226921fb12c2e2c3d7288449ce1da0e

Еще никто не оставлял запись к записи скачать торрент George Harrison with Eric Clapton And His Band - The Rock Legends Tour . Будь первым!

!Обратная связь