Скачать через торрент музыку Damnation Alley - Damnation Alley - 2012 бесплатно без регистрации torrent

Если у вас наблюдаются проблемы со скриншотами, переходом по ссылками, скачиванием торрентов - проблемы в блокировщике рекламы AdBlock. #хорошегоДня!


Статистика раздачи
Размер:  299 MB   |    Зарегистрирован:  5 лет 4 месяца   |    .torrent скачан:  10 раз   |   
Раздают:  1  
   
Загрузка...
 
Автор Сообщение

Umakiro

avatar Umakiro


Damnation Alley - Damnation Alley

Жанр: Hard Rock
Страна-производитель диска: USA
Год издания диска: 2012
Издатель (лейбл): Demon Doll Records
Страна: USA
Аудио кодек: FLAC (*.flac)
Тип рипа: image+.cue
Битрейт аудио: lossless
Продолжительность: 00:40:07
Источник (релизер): vicor 61
Наличие сканов в содержимом раздачи: да

Треклист:

01. Psycho City 03:53
02. Seduction Sister 04:37
03. Sticky Situation 04:19
04. I Gotta Be Free 03:49
05. Down 'N' Dirty (Live) 04:29
06. Sex Machine (Live) 05:19
07. I Gotta Be Free (Live) 04:20
08. Fake Integrity (Live) 03:46
09. Seduction Sister (Live) 05:31
  
Exact Audio Copy V0.99 prebeta 5 from 4. May 2009

EAC extraction logfile from 23. June 2012, 11:23

Damnation Alley / Damnation Alley

Used drive : HL-DT-STDVD+-RW GH82N Adapter: 1 ID: 0

Read mode : Burst

Read offset correction : 0Overread into Lead-In and Lead-Out : NoFill up missing offset samples with silence : YesDelete leading and trailing silent blocks : NoNull samples used in CRC calculations : YesUsed interface : Native Win32 interface for Win NT & 2000

Used output format : User Defined EncoderSelected bitrate : 1024 kBit/sQuality : HighAdd ID3 tag : NoCommand line compressor : C:\Program Files (x86)\Exact Audio Copy\Flac\flac.exeAdditional command line options : -V -8 -T "artist=%a" -T "title=%t" -T "album=%g" -T "date=%y" -T "tracknumber=%n" -T "genre=%m" %s

TOC of the extracted CD

Track | Start | Length | Start sector | End sector --------------------------------------------------------- 1 | 0:00.00 | 3:53.12 | 0 | 17486 2 | 3:53.12 | 4:37.29 | 17487 | 38290 3 | 8:30.41 | 4:19.72 | 38291 | 57787 4 | 12:50.38 | 3:49.30 | 57788 | 74992 5 | 16:39.68 | 4:29.07 | 74993 | 95174 6 | 21:09.00 | 5:19.74 | 95175 | 119173 7 | 26:28.74 | 4:20.35 | 119174 | 138708 8 | 30:49.34 | 3:46.03 | 138709 | 155661 9 | 34:35.37 | 5:31.62 | 155662 | 180548

Range status and errors

Selected range

Filename C:\EAC\FLAC\Damnation Alley - Damnation Alley.wav

Peak level 100.0 % Test CRC 36A3023C Copy CRC 36A3023C Copy OK

No errors occurred

End of status report
  
REM GENRE RockREM DATE 2012REM DISCID 5F096709REM COMMENT "ExactAudioCopy v0.99pb5"FILE "Damnation Alley - Damnation Alley.flac" WAVE TRACK 01 AUDIOTITLE "Psycho City" PERFORMER "Damnation Alley" INDEX 01 00:00:00 TRACK 02 AUDIOTITLE "Seduction Sister" PERFORMER "Damnation Alley" INDEX 00 03:51:12 INDEX 01 03:53:12 TRACK 03 AUDIOTITLE "Sticky Situation" PERFORMER "Damnation Alley" INDEX 00 08:28:41 INDEX 01 08:30:41 TRACK 04 AUDIOTITLE "I Gotta Be Free" PERFORMER "Damnation Alley" INDEX 00 12:48:38 INDEX 01 12:50:38 TRACK 05 AUDIOTITLE "Down 'N' Dirty (Live)" PERFORMER "Damnation Alley" INDEX 00 16:37:68 INDEX 01 16:39:68 TRACK 06 AUDIOTITLE "Sex Machine (Live)" PERFORMER "Damnation Alley" INDEX 01 21:09:00 TRACK 07 AUDIOTITLE "I Gotta Be Free (Live)" PERFORMER "Damnation Alley" INDEX 01 26:28:74 TRACK 08 AUDIOTITLE "Fake Integrity (Live)" PERFORMER "Damnation Alley" INDEX 01 30:49:34 TRACK 09 AUDIOTITLE "Seduction Sister (Live)" PERFORMER "Damnation Alley" INDEX 01 34:35:37
  
-----------------------

DON'T MODIFY THIS FILE

-----------------------

PERFORMER: auCDtect Task Manager, ver. 1.5.1RC4 build 1.5.1.5Copyright (c) 2008-2010 y-soft. All rights reservedhttp://y-soft.org

ANALYZER: auCDtect: CD records authenticity detector, version 0.8.2Copyright (c) 2004 Oleg Berngardt. All rights reserved.Copyright (c) 2004 Alexander Djourik. All rights reserved.

FILE: Damnation Alley - Damnation Alley.flac Size: 284827346 Hash: 462493BFE57B11837C3D09DF752CBE2D Accuracy: -m8 Conclusion: MPEG 95% Signature: A043FEF748CD3FF5579BDFA8ED7EFACAE816AD4E
Доп. информация:
Lance HaunRogue - vocals
John E. Katz - guitar, backing vocals
David Leigh - guitar, backing vocals
Mark Campbell - bass, backing vocals
Don Baniqued - drums, percussion


Трекер:  [ 03-Июл-2012 17:45 ]

  

Скачать .torrent

Размер .torrent файла 12 KB


Размер: 299 MB
Хэш (hash) релиза: 3e25eba2e4d54dd9a2504e84f27d5f0635fe865f

Еще никто не оставлял запись к записи скачать торрент Damnation Alley - Damnation Alley - 2012 . Будь первым!

!Обратная связь