Скачать через торрент музыку Dennis DeYoung бесплатно без регистрации torrent

Если у вас наблюдаются проблемы со скриншотами, переходом по ссылками, скачиванием торрентов - проблемы в блокировщике рекламы AdBlock. #хорошегоДня!


Статистика раздачи
Размер:  377 MB   |    Зарегистрирован:  5 лет 4 месяца   |    .torrent скачан:  22 раза   |   
Раздают:  1  
   
Загрузка...
 
Автор Сообщение

Umakiro

avatar Umakiro


Dennis DeYoung (ex Styx) / One Hundred Years From Now

Жанр: Art-Rock/Glam/Hard-Rock Classic
Страна-производитель диска: Пираты России
Год издания: 2007
Аудиокодек: FLAC (*.flac)
Тип рипа: image+.cue
Битрейт аудио: lossless
Продолжительность: 51:22
Источник (релизер): Рип собственный с CD-R Verbatim
Наличие сканов в содержимом раздачи: да
Треклист:
CD: Dennis DeYoung - One Hundred Years From Now

01. One Hundred Years From Now [0:05:03.12]
02. This Time Next Year [0:03:45.73]
03. Rain [0:04:35.10]
04. Save Me [0:05:26.54]
05. Breathe Again [0:05:11.50]
06. Crossing The Rubicon [0:05:51.50]
07. Respect Me [0:04:50.69]
08. I Believe In You [0:04:59.22]
09. Forgiveness [0:04:22.11]
10. I Don't Believe In Anything [0:04:08.39]
11. Turn Off CNN [0:03:05.56]
  
Exact Audio Copy V1.0 beta 3 from 29. August 2011

Отчёт EAC об извлечении, выполненном 1. июля 2012, 16:00

Dennis DeYoung / One Hundred Years From Now

Дисковод: ASUS DRW-22B3S Adapter: 0 ID: 0

Режим чтения : ДостоверностьИспользование точного потока : ДаОтключение кэша аудио : ДаИспользование указателей C2 : Нет

Коррекция смещения при чтении : 6Способность читать области Lead-in и Lead-out : НетЗаполнение пропущенных сэмплов тишиной : ДаУдаление блоков с тишиной в начале и конце : НетПри вычислениях CRC использовались нулевые сэмплы : ДаИнтерфейс : Встроенный Win32-интерфейс для Win NT/2000

Выходной формат : Пользовательский кодировщикВыбранный битрейт : 896 kBit/sКачество : ВысокийДобавление ID3-тега : ДаУтилита сжатия : C:\Program Files\Exact Audio Copy\FLAC\FLAC.EXEДополнительные параметры : -6 -V -T "ARTIST=%artist%" -T "TITLE=%title%" -T "ALBUM=%albumtitle%" -T "DATE=%year%" -T "TRACKNUMBER=%tracknr%" -T "GENRE=%genre%" -T "COMMENT=%comment%" -T "BAND=%albuminterpret%" -T "ALBUMARTIST=%albuminterpret%" -T "COMPOSER=%composer%" %haslyrics%--tag-from-file=LYRICS="%lyricsfile%"%haslyrics% -T "DISCNUMBER=%cdnumber%" -T "TOTALDISCS=%totalcds%" -T "TOTALTRACKS=%numtracks%" %hascover%--picture="%coverfile%"%hascover% %source% -o %dest%

TOC извлечённого CD

Трек | Старт | Длительность | Начальный сектор | Конечный сектор --------------------------------------------------------------------- 1 | 0:00.00 | 5:03.12 | 0 | 22736 2 | 5:03.12 | 3:45.73 | 22737 | 39684 3 | 8:49.10 | 4:35.10 | 39685 | 60319 4 | 13:24.20 | 5:26.54 | 60320 | 84823 5 | 18:50.74 | 5:11.50 | 84824 | 108198 6 | 24:02.49 | 5:51.50 | 108199 | 134573 7 | 29:54.24 | 4:50.69 | 134574 | 156392 8 | 34:45.18 | 4:59.22 | 156393 | 178839 9 | 39:44.40 | 4:22.11 | 178840 | 198500 10 | 44:06.51 | 4:08.39 | 198501 | 217139 11 | 48:15.15 | 3:05.56 | 217140 | 231070

Характеристики диапазона извлечения и сообщения об ошибках

Выбранный диапазон

Имя файла C:\Documents and Settings\Admin\Рабочий стол\Dennis DeYoung - One Hundred Years From Now - 2007\Dennis DeYoung - One Hundred Years From Now.wav

Пиковый уровень 100.0 % Скорость извлечения 5.9 X Качество диапазона 99.9 % CRC теста 1561FC4F CRC копии 1561FC4F Копирование... OK

Ошибок не произошло

Конец отчёта

==== Контрольная сумма отчёта 52114BE3A9C1264239FB6DEB7BA85145FB6930ED05F229360EE3D32D522CA90D ====
  
-----------------------

DON'T MODIFY THIS FILE

-----------------------

PERFORMER: auCDtect Task Manager, ver. 1.5.1RC4 build 1.5.1.5Copyright (c) 2008-2010 y-soft. All rights reservedhttp://y-soft.org

ANALYZER: auCDtect: CD records authenticity detector, version 0.8.2Copyright (c) 2004 Oleg Berngardt. All rights reserved.Copyright (c) 2004 Alexander Djourik. All rights reserved.

FILE: Dennis DeYoung - One Hundred Years From Now.flac Size: 369783646 Hash: 70CA1A01944B0B4523719E53E4EB70EA Accuracy: -m0 Conclusion: CDDA 100% Signature: 8ADF57FF7FC1E2D2F4E332C0F48B9651A1D1841D
Доп. информация: Очень добротный альбом ДэЯнга!, а для любителей Стикс и мелодичного арта (а так же, безпотерьного качества) - самое то!

Трекер:  [ 03-Июл-2012 17:45 ]

  

Скачать .torrent

Размер .torrent файла 15 KB


Размер: 377 MB
Хэш (hash) релиза: dc9508ab2674b158955fd2b850a4ae288fbf780f

Еще никто не оставлял запись к записи скачать торрент Dennis DeYoung . Будь первым!

!Обратная связь