Скачать через торрент музыку David Bowie - Aladdin Sane бесплатно без регистрации torrent

Если у вас наблюдаются проблемы со скриншотами, переходом по ссылками, скачиванием торрентов - проблемы в блокировщике рекламы AdBlock. #хорошегоДня!


Статистика раздачи
Размер:  327 MB   |    Зарегистрирован:  5 лет 1 месяц   |    .torrent скачан:  16 раз   |   
Раздают:  1  
   
Загрузка...
 
Автор Сообщение

Umakiro

avatar Umakiro


David Bowie / Aladdin Sane (EMI, 1990 Remaster)
Жанр: Classic Rock, Glam Rock
Страна-производитель диска: England
Год издания: 1990
Издатель (лейбл): EMI Records Ltd.
Номер по каталогу: CDP 79 4768 2
Matrix number: CDP 79 4768 2 A0.2:1:4. EMI SWINDON
Страна: England
Аудиокодек: FLAC (*.flac)
Тип рипа: image+.cue (log&cue embedded)
Битрейт аудио: lossless
Продолжительность: 41:32
Источник (релизер): Личная коллекция
Наличие сканов в содержимом раздачи: да (300 dpi PNG)

Треклист:
01. [4:30] Watch That Man
02. [5:08] Aladdin Sane
03. [4:33] Drive In Saturday
04. [4:25] Panic In Detroit
05. [3:01] Cracked Actor
06. [5:15] Time
07. [3:31] The Prettiest Star
08. [3:10] Let's Spend The Night Together
09. [4:07] The Jean Genie
10. [3:53] Lady Grinning Soul

All tracks digitally remastered by Dr. Toby Mountain, assisted by Jonathan Wyner
  
Exact Audio Copy V1.0 beta 3 from 29. August 2011

EAC extraction logfile from 30. June 2012, 21:26

David Bowie / Aladdin Sane (EMI, CDP 79 4768 2)

Used drive : PLEXTOR DVDR PX-880SA Adapter: 5 ID: 0

Read mode : SecureUtilize accurate stream : YesDefeat audio cache : YesMake use of C2 pointers : No

Read offset correction : 6Overread into Lead-In and Lead-Out : NoFill up missing offset samples with silence : YesDelete leading and trailing silent blocks : NoNull samples used in CRC calculations : YesUsed interface : Native Win32 interface for Win NT & 2000

Used output format : User Defined EncoderSelected bitrate : 1024 kBit/sQuality : HighAdd ID3 tag : NoCommand line compressor : C:\Program Files\FLAC\flac.exeAdditional command line options : -8 -V %source% -o %dest%

TOC of the extracted CD

Track | Start | Length | Start sector | End sector --------------------------------------------------------- 1 | 0:00.33 | 4:30.10 | 33 | 20292 2 | 4:30.43 | 5:07.57 | 20293 | 43374 3 | 9:38.25 | 4:32.58 | 43375 | 63832 4 | 14:11.08 | 4:24.72 | 63833 | 83704 5 | 18:36.05 | 3:01.00 | 83705 | 97279 6 | 21:37.05 | 5:14.58 | 97280 | 120887 7 | 26:51.63 | 3:30.72 | 120888 | 136709 8 | 30:22.60 | 3:10.18 | 136710 | 150977 9 | 33:33.03 | 4:07.17 | 150978 | 169519 10 | 37:40.20 | 3:52.73 | 169520 | 186992

Range status and errors

Selected range

Filename C:\Mysterons [Skull_of_Sheeps]\David Bowie [1973] Aladdin Sane (EMI, CDP 79 4768 2, Remaster)\David Bowie - Aladdin Sane (Remaster, 1990).wav

Peak level 100.0 % Extraction speed 7.5 X Range quality 100.0 % Test CRC 79EBAF8D Copy CRC 79EBAF8D Copy OK

No errors occurred

AccurateRip summary

Track 1 accurately ripped (confidence 7) [1641A707] (AR v2)Track 2 accurately ripped (confidence 7) [AF51034D] (AR v2)Track 3 accurately ripped (confidence 7) [5D6EC19C] (AR v2)Track 4 accurately ripped (confidence 7) [6FEE5B0F] (AR v2)Track 5 accurately ripped (confidence 7) [48252BC8] (AR v2)Track 6 accurately ripped (confidence 7) [2C30B908] (AR v2)Track 7 accurately ripped (confidence 7) [EEF78E9A] (AR v2)Track 8 accurately ripped (confidence 7) [A2E9BB14] (AR v2)Track 9 accurately ripped (confidence 7) [1C5C6B35] (AR v2)Track 10 accurately ripped (confidence 7) [DB52827A] (AR v2)

All tracks accurately ripped

End of status report

---- CUETools DB Plugin V2.1.3

[CTDB TOCID: C8n9KgfrnA9C55dTmmgQ2n5It6o-] disk not present in database, Submit result: discs with pregaps not supported in this protocol version
  
[CUETools log; Date: 30.06.2012 21:29:34; Version: 2.1.4]Pregap length 00:00:33.[CTDB TOCID: C8n9KgfrnA9C55dTmmgQ2n5It6o-] disk not present in database.[AccurateRip ID: 001061c8-0081617e-7809bd0a] found.Track [ CRC | V2 ] Status 01 [4551bcbc|1641a707] (030+007/105) Accurately ripped 02 [6280be38|af51034d] (032+007/108) Accurately ripped 03 [01b06abd|5d6ec19c] (032+007/108) Accurately ripped 04 [d0335ea4|6fee5b0f] (032+007/108) Accurately ripped 05 [2cdca240|48252bc8] (032+007/108) Accurately ripped 06 [99a8d1e2|2c30b908] (030+007/106) Accurately ripped 07 [5995c59f|eef78e9a] (031+007/107) Accurately ripped 08 [52505757|a2e9bb14] (032+007/108) Accurately ripped 09 [d0bc1cf0|1c5c6b35] (032+007/108) Accurately ripped 10 [2be2df2e|db52827a] (030+007/106) Accurately rippedOffsetted by -619: 01 [cba131b4] (002/105) Accurately ripped 02 [73050257] (002/108) Accurately ripped 03 [5255ef4c] (002/108) Accurately ripped 04 [6d65cbc8] (002/108) Accurately ripped 05 [b0b9377c] (002/108) Accurately ripped 06 [812d056a] (002/106) Accurately ripped 07 [720b0b1c] (002/107) Accurately ripped 08 [e50d6226] (002/108) Accurately ripped 09 [237303e2] (002/108) Accurately ripped 10 [a7bdc3d6] (002/106) Accurately rippedOffsetted by 40: 01 [7831b87c] (061/105) Accurately ripped 02 [531d0d1f] (062/108) Accurately ripped 03 [3a247f8e] (062/108) Accurately ripped 04 [1c7a8dc4] (062/108) Accurately ripped 05 [a34e9620] (062/108) Accurately ripped 06 [cc74da22] (062/106) Accurately ripped 07 [674e8107] (062/107) Accurately ripped 08 [e1da404f] (062/108) Accurately ripped 09 [cd0b4780] (062/108) Accurately ripped 10 [e00ea06e] (062/106) Accurately ripped

Track Peak [ CRC32 ] [W/O NULL] [ LOG ] -- 100,0 [79EBAF8D] [2CD29199] CRC32 01 100,0 [42142A5D] [17B0DC2E] 02 100,0 [EA8ED7F4] [6BC2314A] 03 100,0 [1003BECA] [3E59B342] 04 100,0 [232ED731] [6A674A94] 05 100,0 [F074A0F2] [EBD768A2] 06 100,0 [F6A5E9A0] [D2788FBF] 07 77,5 [49D30CDD] [145E0C3A] 08 100,0 [507575A8] [11C8888C] 09 77,6 [0380795D] [F8ABCDE1] 10 80,3 [44628871] [47DA674B]
  
foobar2000 1.0.3 / Dynamic Range Meter 1.1.1log date: 2012-06-30 23:02:28

--------------------------------------------------------------------------------Analyzed: David Bowie / Aladdin Sane (EMI, CDP 79 4768 2)--------------------------------------------------------------------------------

DR Peak RMS Duration Track--------------------------------------------------------------------------------DR11 0.00 dB -12.27 dB 4:30 ?-Watch That ManDR11 0.00 dB -13.36 dB 5:08 ?-Aladdin SaneDR10 0.00 dB -12.14 dB 4:33 ?-Drive In SaturdayDR10 0.00 dB -11.75 dB 4:25 ?-Panic In DetroitDR11 0.00 dB -12.77 dB 3:01 ?-Cracked ActorDR11 0.00 dB -12.96 dB 5:15 ?-TimeDR11 -2.21 dB -15.62 dB 3:31 ?-The Prettiest StarDR12 0.00 dB -13.57 dB 3:10 ?-Let's Spend The Night TogetherDR10 -2.20 dB -13.58 dB 4:07 ?-The Jean GenieDR11 -1.90 dB -16.20 dB 3:53 ?-Lady Grinning Soul--------------------------------------------------------------------------------

Number of tracks: 10Official DR value: DR11

Samplerate: 44100 HzChannels: 2Bits per sample: 16Bitrate: 892 kbpsCodec: FLAC================================================================================


Трекер:  [ 03-Июл-2012 17:45 ]

  

Скачать .torrent

Размер .torrent файла 14 KB


Размер: 327 MB
Хэш (hash) релиза: 417bdce00879fc08e258e78a2a6bc3c7aba008c5

Торренты, похожие на David Bowie - Aladdin Sane скачать торрент

Форум Название Автор Размер S L Добавлен
Rосk | Mеtаl | Аltеrnаtivе, Рunk, Indереndеnt (mр3) ·· (Rock) David Bowie - Aladdin Sane 40th Anniversary Edition (Remastered) - 2013, MP3, V0 Galfimbul 8159297878 MB 0 0 1430212328

12:12

28-Апр-15

Rосk | Mеtаl | Аltеrnаtivе, Рunk, Indереndеnt (losslеss) ·· (Classic Rock) David Bowie - Aladdin Sane (Japan SHM-CD) - 2009, FLAC (tracks+.cue), lossless Galfimbul 399053757381 MB 0 0 1297876082

20:08

16-Фев-11

Еще никто не оставлял запись к записи скачать торрент David Bowie - Aladdin Sane . Будь первым!

!Обратная связь