Скачать через торрент музыку Trytan - Sylentiger - 1990, APE бесплатно без регистрации torrent

Если у вас наблюдаются проблемы со скриншотами, переходом по ссылками, скачиванием торрентов - проблемы в блокировщике рекламы AdBlock. #хорошегоДня!


Статистика раздачи
Размер:  402 MB   |    Зарегистрирован:  5 лет 4 месяца   |    .torrent скачан:  15 раз   |   
Раздают:  1  
   
Загрузка...
 
Автор Сообщение

Umakiro

avatar Umakiro


Trytan / Sylentiger

Жанр: progressive hard rock
Страна-производитель диска: USA
Год издания: 1990
Издатель (лейбл): REX Music
Номер по каталогу: SPCN7901421029
Страна: USA
Аудиокодек: APE (*.ape)
Тип рипа: image+.cue
Битрейт аудио: lossless
Источник (релизер): свой рипъ
Наличие сканов в содержимом раздачи: нет
Треклист:
01. Take Cover
02. Deadly Masquerade
03. Beyond the Night
04. Star Bound
05. Make Your Move
06. Sylentiger
07. Here to Stay
08. Playing with Fire
09. Life Goes on
10. Waking the Giant
11. By My Spirit
  
Exact Audio Copy V0.99 prebeta 4 from 23. January 2008

EAC extraction logfile from 2. July 2012, 18:35

Trytan / Sylentiger

Used drive : PIONEER DVD-RW DVR-212 Adapter: 5 ID: 0

Read mode : SecureUtilize accurate stream : YesDefeat audio cache : YesMake use of C2 pointers : No

Read offset correction : 48Overread into Lead-In and Lead-Out : NoFill up missing offset samples with silence : YesDelete leading and trailing silent blocks : NoNull samples used in CRC calculations : YesUsed interface : Native Win32 interface for Win NT & 2000

Used output format : Internal WAV RoutinesSample format : 44.100 Hz; 16 Bit; Stereo

TOC of the extracted CD

Track | Start | Length | Start sector | End sector --------------------------------------------------------- 1 | 0:00.00 | 5:52.35 | 0 | 26434 2 | 5:52.35 | 4:43.65 | 26435 | 47724 3 | 10:36.25 | 6:47.42 | 47725 | 78291 4 | 17:23.67 | 5:24.13 | 78292 | 102604 5 | 22:48.05 | 5:29.02 | 102605 | 127281 6 | 28:17.07 | 4:36.03 | 127282 | 147984 7 | 32:53.10 | 6:49.65 | 147985 | 178724 8 | 39:43.00 | 6:43.52 | 178725 | 209001 9 | 46:26.52 | 4:35.08 | 209002 | 229634 10 | 51:01.60 | 4:05.50 | 229635 | 248059 11 | 55:07.35 | 3:34.25 | 248060 | 264134

Range status and errors

Selected range

Filename D:\temp\Trytan - Sylentiger.wav

Peak level 93.3 % Range quality 100.0 % Copy CRC 4FD57586 Copy OK

No errors occurred

AccurateRip summary

Track 1 accurately ripped (confidence 2) [37EACACB]Track 2 accurately ripped (confidence 2) [61306F8F]Track 3 accurately ripped (confidence 2) [A744BB71]Track 4 accurately ripped (confidence 2) [83772B39]Track 5 accurately ripped (confidence 2) [CB31B5EC]Track 6 accurately ripped (confidence 2) [8C0B9F26]Track 7 accurately ripped (confidence 2) [68EBCB2A]Track 8 accurately ripped (confidence 2) [C6A08831]Track 9 accurately ripped (confidence 2) [FFE891D8]Track 10 accurately ripped (confidence 2) [8AD49AC8]Track 11 accurately ripped (confidence 2) [9BD496DF]

All tracks accurately ripped

End of status report


Трекер:  [ 03-Июл-2012 17:45 ]

  

Скачать .torrent

Размер .torrent файла 32 KB


Размер: 402 MB
Хэш (hash) релиза: 46d5bee634937f5df6c3d36106d39267b916ef3c

Еще никто не оставлял запись к записи скачать торрент Trytan - Sylentiger - 1990, APE . Будь первым!

!Обратная связь