Скачать через торрент музыку Burton Cummings бесплатно без регистрации torrent

Если у вас наблюдаются проблемы со скриншотами, переходом по ссылками, скачиванием торрентов - проблемы в блокировщике рекламы AdBlock. #хорошегоДня!


Статистика раздачи
Размер:  557 MB   |    Зарегистрирован:  5 лет 4 месяца   |    .torrent скачан:  12 раз   |   
Раздают:  1  
   
Загрузка...
 
Автор Сообщение

Umakiro

avatar Umakiro


Burton Cummings (ex-Guess Who) / Above the Ground

Жанр: Rock
Год издания: 2008
Аудиокодек: FLAC (*.flac)
Тип рипа: image+.cue
Битрейт аудио: lossless
Продолжительность: 74:59
Источник (релизер): my disc
Наличие сканов в содержимом раздачи: да
Треклист:
01. Crazy If You Mess With The Gods [0:03:50.05]
02. Junior Won't Behave [0:03:37.73]
03. Tpos [0:03:30.12]
04. Any Minor Miracle [0:04:09.11]
05. Powers At Play [0:04:42.62]
06. Ponderlust [0:04:49.65]
07. Rollaway [0:01:41.68]
08. We Just Came From The U.S.A. [0:03:36.40]
09. Pretty Pictures [0:03:39.15]
10. Look Out Charlie [0:03:14.09]
11. Kurt's Song [0:04:45.23]
12. Richard [0:04:59.54]
13. Dream [0:03:45.07]
14. Up In The Canyon [0:03:09.26]
15. A Touch Of Morning [0:03:49.04]
16. Revelation [0:04:24.19]
17. Invisible [0:03:31.38]
18. Retribution [0:05:24.73]
19. Above The Ground [0:04:18.41]
  
Exact Audio Copy V0.99 prebeta 4 from 23. January 2008

Отчёт EAC об извлечении, выполненном 2. июля 2012, 18:28

Burton Cummings / Above The Ground

Дисковод: ASUS DRW-1814BL Adapter: 1 ID: 0

Режим чтения : ДостоверностьИспользование точного потока : ДаОтключение кэша аудио : ДаИспользование указателей C2 : Нет

Коррекция смещения при чтении : 6Способность читать области Lead-in и Lead-out : НетЗаполнение пропущенных сэмплов тишиной : ДаУдаление блоков с тишиной в начале и конце : НетПри вычислениях CRC использовались нулевые сэмплы : ДаИнтерфейс : Установленный внешний ASPI-интерфейс

Выходной формат : Пользовательский кодировщикВыбранный битрейт : 1024 kBit/sКачество : ВысокийДобавление ID3-тэга : НетУтилита сжатия : C:\Program Files\Exact Audio Copy\FLAC\FLAC.EXEДополнительные параметры : -6 -V -T "ARTIST=%a" -T "TITLE=%t" -T "ALBUM=%g" -T "DATE=%y" -T "TRACKNUMBER=%n" -T "GENRE=%m" -T "COMMENT=%e" %s -o %d

TOC извлечённого CD

Трек | Старт | Длительность | Начальный сектор | Конечный сектор --------------------------------------------------------------------- 1 | 0:00.00 | 3:50.05 | 0 | 17254 2 | 3:50.05 | 3:37.73 | 17255 | 33602 3 | 7:28.03 | 3:30.12 | 33603 | 49364 4 | 10:58.15 | 4:09.11 | 49365 | 68050 5 | 15:07.26 | 4:42.62 | 68051 | 89262 6 | 19:50.13 | 4:49.65 | 89263 | 111002 7 | 24:40.03 | 1:41.68 | 111003 | 118645 8 | 26:21.71 | 3:36.40 | 118646 | 134885 9 | 29:58.36 | 3:39.15 | 134886 | 151325 10 | 33:37.51 | 3:14.09 | 151326 | 165884 11 | 36:51.60 | 4:45.23 | 165885 | 187282 12 | 41:37.08 | 4:59.54 | 187283 | 209761 13 | 46:36.62 | 3:45.07 | 209762 | 226643 14 | 50:21.69 | 3:09.26 | 226644 | 240844 15 | 53:31.20 | 3:49.04 | 240845 | 258023 16 | 57:20.24 | 4:24.19 | 258024 | 277842 17 | 61:44.43 | 3:31.38 | 277843 | 293705 18 | 65:16.06 | 5:24.73 | 293706 | 318078 19 | 70:41.04 | 4:18.41 | 318079 | 337469

Характеристики диапазона извлечения и сообщения об ошибках

Выбранный диапазон

Имя файла D:\loSSleSS\Burton Cummings'08\Burton Cummings - Above The Ground.wav

Пиковый уровень 98.8 % Качество диапазона 100.0 % CRC теста F07F58C1 CRC копии F07F58C1 Копирование... OK

Ошибок не произошло

AccurateRip: сводка

Трек 1 точное извлечение (доверие 8) [B170DAD9]Трек 2 точное извлечение (доверие 8) [A0849394]Трек 3 точное извлечение (доверие 8) [3BF543EA]Трек 4 точное извлечение (доверие 8) [EF7DA766]Трек 5 точное извлечение (доверие 8) [D4925C0E]Трек 6 точное извлечение (доверие 8) [665C8CC9]Трек 7 точное извлечение (доверие 8) [0DC83ABE]Трек 8 точное извлечение (доверие 8) [462806BB]Трек 9 точное извлечение (доверие 8) [EB3FD1D8]Трек 10 точное извлечение (доверие 8) [F96CF852]Трек 11 точное извлечение (доверие 8) [0627C3D0]Трек 12 точное извлечение (доверие 9) [364642B7]Трек 13 точное извлечение (доверие 9) [61160787]Трек 14 точное извлечение (доверие 9) [8D6BFA01]Трек 15 точное извлечение (доверие 9) [4D387E83]Трек 16 точное извлечение (доверие 9) [05E3A472]Трек 17 точное извлечение (доверие 9) [84649420]Трек 18 точное извлечение (доверие 9) [2AF1E908]Трек 19 точное извлечение (доверие 9) [A5180E99]

Все треки извлечены точно

Конец отчёта
Канадский музыкант и певец Бартон Каммингс родился 31 декабря 1947 года в городе Виннипеге, провинция Манитоба. Получив возможность играть на фортепиано, Бартон пристрастился к музыке, и в 14 лет стал участником местной группы «The Deverons», играющей в стиле R&B. Они часто выступают на концертах в школах и клубах.В 1965 году Бартон Каммингс присоединяется к рок-группе «The Guess Who», заменив клавишника Боба Эшли. После ухода фронтмена Чада Алена, в группе остаются кроме Каммингса Рэнди Бахман, Гэри Петерссен и Джим Кейл. Бартон Каммингс был автором многих хитов «The Guess Who», таких как «No Time», «Rain Dance», «No Sugar Tonight», «Hand Me Down World», «Sour Suite» и многих других.В 1969 году «The Guess Who» добилась международного успеха после исполнения своего хита «These Eyes», написанная Каммингсом совместно с гитаристом Рэнди Бахманом. За этим хитом последовал следующий – «Laughing», а исполнение Бартоном джазового соло на флейте в песне «Undun» признали одним из лучших в мире. В 1970 году песня «American Woman» стала лидером всех канадских хит-парадов, и даже добралась до вершины американского Billboard. В Канаде популярность «The Guess Who» была сравнима с популярностью «The Beatles».Однако вскоре между Каммингсом и Бахманом стали происходить ссоры, связанные с личными религиозными убеждениями Бахмана. Рэнди покидает «The Guess Who» и объединяется с ее бывшим участником Чадам Аленом в группу «Brave Belt», а Каммингс становится единоличным лидером «The Guess Who». Он продолжает писать хиты для группы, среди которых выделяются «Star Baby», «Albert Flasher», «Share the Land», «Glamour Boy» и другие.В 1975 году Бартон Каммингс покидает «The Guess Who», чтобы заняться сольной карьерой. Он пишет хиты, которые стали лидерами канадских чартов, такие как «I'm Scared», «Fine State of Affairs», «Break it to Them Gently», а песня «Stand Tall» добралась до десятой позиции крупнейшего американского хит-парада. Его альбом «Dream of a Child album», выпущенный в 1978 году, стал самым успешным альбомом в Канаде. Всего в период своего сольного творчества с 1976 по 1990 года Бартон Каммингс выпустил восемь альбомов.В конце 1970- х годов Бартон Каммингс некоторое время живет в Шерман Оакс, штат Калифорния, где пишет и исполняет музыку к фильмам. Вскоре он возвращается в Виннипег, где приобретает сеть ресторанов «Salisbury House». Также Бартон является ярым коллекционером комиксов.В 2000 году Бартон Каммингс объединил «The Guess Who», чтобы отправиться в тур по Канаде и США. В 2001 году все члены «The Guess Who» получили почетные докторские диссертации Брэндонского университета в Манитобе, а Каммингс также стал почетным членом Ордена Манитоба. В 2003 году группа выступила на концерте SARSstock в Торонто. В Виннипеге находится театр, названный в честь Каммингса, The Burton Cummings Theater.В 2008 году Бартон Каммингс выпустил свой новый сольный альбом «Above the Ground», составленный из песен, написанных за 18-летний перерыв сольной карьеры. Релиз включает в себя 19 оригинальных треков и DVD-запись, показывающая процесс работы над альбомом.


Трекер:  [ 03-Июл-2012 17:45 ]

  

Скачать .torrent

Размер .torrent файла 12 KB


Размер: 557 MB
Хэш (hash) релиза: d4db563d373c0975ebb2b850257c2895746b6c99

Торренты, похожие на Burton Cummings скачать торрент

Форум Название Автор Размер S L Добавлен
Зарубежный Rock ·· (Rock) Burton Cummings (The Guess Who) - Massey Hall (Live) - 2012, MP3, 320 kbps Galfimbul 182696608174 MB 0 0 1351334520

13:42

27-Окт-12

Еще никто не оставлял запись к записи скачать торрент Burton Cummings . Будь первым!

!Обратная связь