Скачать через торрент музыку Balls - Chameleon - 2009, FLAC бесплатно без регистрации torrent

Если у вас наблюдаются проблемы со скриншотами, переходом по ссылками, скачиванием торрентов - проблемы в блокировщике рекламы AdBlock. #хорошегоДня!


Статистика раздачи
Размер:  312 MB   |    Зарегистрирован:  5 лет 1 месяц   |    .torrent скачан:  17 раз   |   
Раздают:  1  
   
Загрузка...
 
Автор Сообщение

Umakiro

avatar Umakiro


Balls / Chameleon

Жанр: Hard-Rock
Страна-производитель диска: Пираты России
Год издания: 2009
Аудиокодек: FLAC (*.flac)
Тип рипа: image+.cue
Битрейт аудио: lossless
Продолжительность: 39:00
Источник (релизер): Диск свой, Рип свой
Наличие сканов в содержимом раздачи: да
Треклист:
CD: Balls - Chameleon

01. Camper [0:03:58.72]
02. Chameleon [0:03:59.62]
03. Lover Of The 3rd Degree [0:03:24.32]
04. Danger Zone [0:03:08.24]
05. Howl For Me [0:04:20.40]
06. Getting Some [0:03:38.29]
07. Inspiration [0:04:21.40]
08. Jealousy [0:04:03.55]
09. Locked Up & Crazy [0:03:58.12]
10. The Change [0:04:03.74]
  
Exact Audio Copy V1.0 beta 3 from 29. August 2011

Отчёт EAC об извлечении, выполненном 2. июля 2012, 0:26

Balls / Chameleon

Дисковод: PLEXTOR DVDR PX-750A Adapter: 1 ID: 0

Режим чтения : ДостоверностьИспользование точного потока : ДаОтключение кэша аудио : ДаИспользование указателей C2 : Нет

Коррекция смещения при чтении : 102Способность читать области Lead-in и Lead-out : НетЗаполнение пропущенных сэмплов тишиной : ДаУдаление блоков с тишиной в начале и конце : НетПри вычислениях CRC использовались нулевые сэмплы : ДаИнтерфейс : Встроенный Win32-интерфейс для Win NT/2000

Выходной формат : Пользовательский кодировщикВыбранный битрейт : 896 kBit/sКачество : ВысокийДобавление ID3-тега : ДаУтилита сжатия : C:\Program Files\Exact Audio Copy\FLAC\FLAC.EXEДополнительные параметры : -6 -V -T "ARTIST=%artist%" -T "TITLE=%title%" -T "ALBUM=%albumtitle%" -T "DATE=%year%" -T "TRACKNUMBER=%tracknr%" -T "GENRE=%genre%" -T "COMMENT=%comment%" -T "BAND=%albuminterpret%" -T "ALBUMARTIST=%albuminterpret%" -T "COMPOSER=%composer%" %haslyrics%--tag-from-file=LYRICS="%lyricsfile%"%haslyrics% -T "DISCNUMBER=%cdnumber%" -T "TOTALDISCS=%totalcds%" -T "TOTALTRACKS=%numtracks%" %hascover%--picture="%coverfile%"%hascover% %source% -o %dest%

TOC извлечённого CD

Трек | Старт | Длительность | Начальный сектор | Конечный сектор --------------------------------------------------------------------- 1 | 0:00.00 | 3:58.72 | 0 | 17921 2 | 3:58.72 | 3:59.62 | 17922 | 35908 3 | 7:58.59 | 3:24.32 | 35909 | 51240 4 | 11:23.16 | 3:08.24 | 51241 | 65364 5 | 14:31.40 | 4:20.40 | 65365 | 84904 6 | 18:52.05 | 3:38.29 | 84905 | 101283 7 | 22:30.34 | 4:21.40 | 101284 | 120898 8 | 26:51.74 | 4:03.55 | 120899 | 139178 9 | 30:55.54 | 3:58.12 | 139179 | 157040 10 | 34:53.66 | 4:03.74 | 157041 | 175339

Характеристики диапазона извлечения и сообщения об ошибках

Выбранный диапазон

Имя файла C:\Documents and Settings\Admin\Рабочий стол\Balls - Chameleon - 2012\Balls - Chameleon.wav

Пиковый уровень 86.1 % Скорость извлечения 7.0 X Качество диапазона 100.0 % CRC теста F61ACEDE CRC копии F61ACEDE Копирование... OK

Ошибок не произошло

Конец отчёта

==== Контрольная сумма отчёта 1537B07B03162B2A97B525D6A73AF34C9784BC670DA3C94ABFB7EAAEDEC4B994 ====
  
-----------------------

DON'T MODIFY THIS FILE

-----------------------

PERFORMER: auCDtect Task Manager, ver. 1.5.1RC4 build 1.5.1.5Copyright (c) 2008-2010 y-soft. All rights reservedhttp://y-soft.org

ANALYZER: auCDtect: CD records authenticity detector, version 0.8.2Copyright (c) 2004 Oleg Berngardt. All rights reserved.Copyright (c) 2004 Alexander Djourik. All rights reserved.

FILE: Balls - Chameleon.flac Size: 304683902 Hash: BAAA54AC9D08E0E8DDFABA9383A1CA10 Accuracy: -m0 Conclusion: CDDA 100% Signature: 7E1EDEE2256E66CF2562D3D4F2B54A7273B1472B
Доп. информация: есть что-то айсидисишное, есть что-то и своё ... веселый хард, вобщем ...
сканы в комплекте, а лосось на обеденном столе - (мр3 не признаю за звук)
Добро Пожаловать! К столу, Товарищщии!!! Скандинавы снова заруливают!
Bjorn Lodin - Vocals
Micke "Nord" Andersson - Guitars Left & B Vox
Janne Stark - Guitars Right
Bjorn Lundkvist - Bass & B Vox
Robban Back - Drums


Трекер:  [ 03-Июл-2012 17:45 ]

  

Скачать .torrent

Размер .torrent файла 13 KB


Размер: 312 MB
Хэш (hash) релиза: c71656f13319c3701c7e8d167cb31beaf4dacd46

Еще никто не оставлял запись к записи скачать торрент Balls - Chameleon - 2009, FLAC . Будь первым!

!Обратная связь