Скачать через торрент музыку Fleetwood Mac - 25 years - The Chain бесплатно без регистрации torrent

Если у вас наблюдаются проблемы со скриншотами, переходом по ссылками, скачиванием торрентов - проблемы в блокировщике рекламы AdBlock. #хорошегоДня!


Статистика раздачи
Размер:  3.04 GB   |    Зарегистрирован:  5 лет 4 месяца   |    .torrent скачан:  38 раз   |   
Раздают:  1  
   
Загрузка...
 
Автор Сообщение

Umakiro

avatar Umakiro


Fleetwood Mac / 25 years - The Chain [2012, 4CD, Warner Bros., 081227973025]

Жанр: Rock, Blues, Blues Rock, Pop Rock, Soft Rock
Страна-производитель диска: EU
Оригинальный год издания Бокс Сета: 1992
Год переиздания: 2012
Издатель (лейбл): Warner Bros. Records
Номер по каталогу: 081227973025
Страна: British-American
Аудиокодек: FLAC (*.flac)
Тип рипа: image+.cue
Битрейт аудио: lossless
Продолжительность: 04:53:29
Источник (релизер): Собственный
Наличие сканов в содержимом раздачи: да (Ping, 600dpi, 1,29Gb)
01. Paper Doll - 3:57
02. Love Shines - 4:48
03. Stand Back (Live) - 5:03
04. Crystal - 5:09
05. Isn't It Midnight - 4:03
06. Big Love - 3:41
07. Everywhere - 3:43
08. Affairs Of The Heart - 4:20
09. Heart Of Stone - 4:39
10. Sara - 6:27
11. That's All For Everyone - 3:03
12. Over My Head - 3:35
13. Little Lies - 3:39
14. Eyes Of The World - 3:43
15. Oh Diane - 2:33
16. In The Back Of My Mind - 7:02
17. Make Me A Mask - 4:02
01. Save Me - 4:15
02. Goodbye Angel - 3:06
03. Silver Springs - 4:29
04. What Makes You Think You're The One - 3:31
05. Think About Me - 2:41
06. Gypsy - 5:21
07. You Make Loving Fun - 3:31
08. Second Hand News - 2:50
09. Love In Store - 3:24
10. The Chain - 4:20
11. Teen Beat - 2:43
12. Dreams - 4:16
13. Only Over You - 4:05
14. I'm So Afraid - 7:27
15. Love Is Dangerous - 3:19
16. Gold Dust Woman - 5:03
17. Not That Funny - 7:56
01. Warm Ways - 3:51
02. Say You Love Me - 3:46
03. Don't Stop - 3:11
04. Rhiannon - 4:09
05. Walk A Thin Line - 3:46
06. Storms - 5:27
07. Go Your Own Way - 3:40
08. Sisters Of The Moon - 4:37
09. Monday Morning - 3:36
10. Landslide - 3:17
11. Hypnotized - 4:47
12. Lay It All Down - 4:36
13. Angel - 4:53
14. Beautiful Child - 5:18
15. Brown Eyes - 4:56
16. Save Me A Place - 2:42
17. Tusk - 3:15
18. Never Going Back Again - 2:04
19. Songbird - 3:17
01. I Believe My Time Ain't Long - 2:53
02. Need Your Love So Bad - 3:55
03. Rattlesnake Shake - 3:30
04. Oh Well Part 1 - 3:30
05. Stop Messin' Around - 2:22
06. Green Manalishi - 4:38
07. Albatross - 3:12
08. Man Of The World - 2:52
09. Love That Burns - 5:02
10. Black Magic Woman - 2:54
11. Watch Out - 4:14
12. String-A-Long - 2:16
13. Station Man - 5:41
14. Did You Ever Love Me - 3:41
15. Sentimental Lady - 4:32
16. Come A Little Bit Closer - 4:48
17. Heros Are Hard To Find - 3:35
18. Trinity - 4:08
19. Why - 4:55

Wikipedia | Discogs | Facebook | Official website
  
Exact Audio Copy V1.0 beta 1 from 15. November 2010

EAC extraction logfile from 30. June 2012, 10:08

Fleetwood Mac / 25 Years The Chain (CD1)

Used drive : Optiarc DVD RW AD-5200S Adapter: 2 ID: 0

Read mode : SecureUtilize accurate stream : YesDefeat audio cache : YesMake use of C2 pointers : No

Read offset correction : 48Overread into Lead-In and Lead-Out : NoFill up missing offset samples with silence : YesDelete leading and trailing silent blocks : NoNull samples used in CRC calculations : YesUsed interface : Native Win32 interface for Win NT & 2000

Used output format : User Defined EncoderSelected bitrate : 1024 kBit/sQuality : HighAdd ID3 tag : NoCommand line compressor : C:\Program Files (x86)\Exact Audio Copy\FLAC\FLAC.EXEAdditional command line options : -8 -V %s

TOC of the extracted CD

Track | Start | Length | Start sector | End sector --------------------------------------------------------- 1 | 0:00.00 | 3:57.05 | 0 | 17779 2 | 3:57.05 | 4:47.72 | 17780 | 39376 3 | 8:45.02 | 5:02.70 | 39377 | 62096 4 | 13:47.72 | 5:08.65 | 62097 | 85261 5 | 18:56.62 | 4:03.13 | 85262 | 103499 6 | 23:00.00 | 3:40.42 | 103500 | 120041 7 | 26:40.42 | 3:42.43 | 120042 | 136734 8 | 30:23.10 | 4:20.25 | 136735 | 156259 9 | 34:43.35 | 4:38.72 | 156260 | 177181 10 | 39:22.32 | 6:26.43 | 177182 | 206174 11 | 45:49.00 | 3:03.07 | 206175 | 219906 12 | 48:52.07 | 3:34.38 | 219907 | 235994 13 | 52:26.45 | 3:38.57 | 235995 | 252401 14 | 56:05.27 | 3:42.73 | 252402 | 269124 15 | 59:48.25 | 2:33.32 | 269125 | 280631 16 | 62:21.57 | 7:01.45 | 280632 | 312251 17 | 69:23.27 | 4:01.58 | 312252 | 330384

Range status and errors

Selected range

Filename G:\Download\Музыка LossLess\Fleetwood Mac\1992 - Fleetwood Mac - The Chain [2012, 4CD, Warner Bros., 8122797302]\CD1\Fleetwood Mac - 25 Years The Chain (CD1).wav

Peak level 98.8 % Extraction speed 0.2 X Range quality 100.0 % Test CRC 1B734776 Copy CRC 1B734776 Copy OK

No errors occurred

AccurateRip summary

Track 1 cannot be verified as accurate (confidence 10) [31A8A5C4], AccurateRip returned [BA808B63]Track 2 cannot be verified as accurate (confidence 10) [7E938947], AccurateRip returned [1A1C1C84]Track 3 cannot be verified as accurate (confidence 10) [8C8296F8], AccurateRip returned [0EE3E345]Track 4 cannot be verified as accurate (confidence 10) [AA09C465], AccurateRip returned [A756F047]Track 5 cannot be verified as accurate (confidence 10) [6FA7530A], AccurateRip returned [BE675F9D]Track 6 cannot be verified as accurate (confidence 11) [FA984162], AccurateRip returned [27F66933]Track 7 cannot be verified as accurate (confidence 10) [8CFEE3F9], AccurateRip returned [1AD76A84]Track 8 cannot be verified as accurate (confidence 10) [DDF150E3], AccurateRip returned [DFAA8601]Track 9 cannot be verified as accurate (confidence 10) [14B8D425], AccurateRip returned [7D90CBCA]Track 10 cannot be verified as accurate (confidence 11) [7341901B], AccurateRip returned [4E4A6B8F]Track 11 cannot be verified as accurate (confidence 10) [199D515E], AccurateRip returned [3938A05E]Track 12 cannot be verified as accurate (confidence 10) [70BE03BE], AccurateRip returned [B9B35791]Track 13 cannot be verified as accurate (confidence 11) [3BEA1599], AccurateRip returned [58FDDFCC]Track 14 cannot be verified as accurate (confidence 10) [B77A6448], AccurateRip returned [FC34F482]Track 15 cannot be verified as accurate (confidence 11) [66BB6ADC], AccurateRip returned [F690734C]Track 16 cannot be verified as accurate (confidence 10) [9FB1D0DB], AccurateRip returned [57D5F0FE]Track 17 cannot be verified as accurate (confidence 10) [92CF8DB8], AccurateRip returned [2EDA8AC6]

No tracks could be verified as accurateYou may have a different pressing from the one(s) in the database

End of status report
  
Exact Audio Copy V1.0 beta 1 from 15. November 2010

EAC extraction logfile from 30. June 2012, 11:36

Fleetwood Mac / 25 Years The Chain (CD2)

Used drive : Optiarc DVD RW AD-5200S Adapter: 2 ID: 0

Read mode : SecureUtilize accurate stream : YesDefeat audio cache : YesMake use of C2 pointers : No

Read offset correction : 48Overread into Lead-In and Lead-Out : NoFill up missing offset samples with silence : YesDelete leading and trailing silent blocks : NoNull samples used in CRC calculations : YesUsed interface : Native Win32 interface for Win NT & 2000

Used output format : User Defined EncoderSelected bitrate : 1024 kBit/sQuality : HighAdd ID3 tag : NoCommand line compressor : C:\Program Files (x86)\Exact Audio Copy\FLAC\FLAC.EXEAdditional command line options : -8 -V %s

TOC of the extracted CD

Track | Start | Length | Start sector | End sector --------------------------------------------------------- 1 | 0:00.00 | 4:14.68 | 0 | 19117 2 | 4:14.68 | 3:06.17 | 19118 | 33084 3 | 7:21.10 | 4:29.28 | 33085 | 53287 4 | 11:50.38 | 3:30.62 | 53288 | 69099 5 | 15:21.25 | 2:40.60 | 69100 | 81159 6 | 18:02.10 | 5:21.08 | 81160 | 105242 7 | 23:23.18 | 3:31.22 | 105243 | 121089 8 | 26:54.40 | 2:49.60 | 121090 | 133824 9 | 29:44.25 | 3:23.43 | 133825 | 149092 10 | 33:07.68 | 4:19.40 | 149093 | 168557 11 | 37:27.33 | 2:43.17 | 168558 | 180799 12 | 40:10.50 | 4:16.10 | 180800 | 200009 13 | 44:26.60 | 4:05.33 | 200010 | 218417 14 | 48:32.18 | 7:27.37 | 218418 | 251979 15 | 55:59.55 | 3:18.65 | 251980 | 266894 16 | 59:18.45 | 5:02.45 | 266895 | 289589 17 | 64:21.15 | 7:55.63 | 289590 | 325277

Range status and errors

Selected range

Filename G:\Download\Музыка LossLess\Fleetwood Mac\1992 - Fleetwood Mac - The Chain [2012, 4CD, Warner Bros., 8122797302]\CD2\Fleetwood Mac - 25 Years The Chain (CD2).wav

Peak level 98.8 % Extraction speed 0.4 X Range quality 100.0 % Test CRC 0CDA78E7 Copy CRC 0CDA78E7 Copy OK

No errors occurred

AccurateRip summary

Track 1 cannot be verified as accurate (confidence 15) [47E7141A], AccurateRip returned [A1B0D072]Track 2 cannot be verified as accurate (confidence 17) [35BA04DD], AccurateRip returned [A70D1EE9]Track 3 cannot be verified as accurate (confidence 16) [52A4996F], AccurateRip returned [321E6825]Track 4 cannot be verified as accurate (confidence 15) [F2E32554], AccurateRip returned [9783E95E]Track 5 cannot be verified as accurate (confidence 16) [D1DECD39], AccurateRip returned [3FAFF481]Track 6 cannot be verified as accurate (confidence 15) [2C882860], AccurateRip returned [4224ED64]Track 7 cannot be verified as accurate (confidence 15) [A7606D7A], AccurateRip returned [867A0776]Track 8 cannot be verified as accurate (confidence 16) [2D6FEEC1], AccurateRip returned [50156605]Track 9 cannot be verified as accurate (confidence 16) [8C0CA095], AccurateRip returned [F60564BB]Track 10 cannot be verified as accurate (confidence 16) [04C13786], AccurateRip returned [9A8E2A32]Track 11 cannot be verified as accurate (confidence 16) [65AC12FD], AccurateRip returned [D7F75C73]Track 12 cannot be verified as accurate (confidence 16) [3AE423CF], AccurateRip returned [BD8EE9FB]Track 13 cannot be verified as accurate (confidence 14) [26BD84BB], AccurateRip returned [48FE4170]Track 14 cannot be verified as accurate (confidence 14) [50AC81F8], AccurateRip returned [5F5C9B43]Track 15 cannot be verified as accurate (confidence 15) [E8E0FC74], AccurateRip returned [A2E6F89C]Track 16 cannot be verified as accurate (confidence 16) [A5EF64A9], AccurateRip returned [3848E65D]Track 17 cannot be verified as accurate (confidence 12) [4FDDE762], AccurateRip returned [29CD784E]

No tracks could be verified as accurateYou may have a different pressing from the one(s) in the database

End of status report
  
Exact Audio Copy V1.0 beta 1 from 15. November 2010

EAC extraction logfile from 30. June 2012, 13:25

Fleetwood Mac / 25 Years The Chain (CD3)

Used drive : Optiarc DVD RW AD-5200S Adapter: 2 ID: 0

Read mode : SecureUtilize accurate stream : YesDefeat audio cache : YesMake use of C2 pointers : No

Read offset correction : 48Overread into Lead-In and Lead-Out : NoFill up missing offset samples with silence : YesDelete leading and trailing silent blocks : NoNull samples used in CRC calculations : YesUsed interface : Native Win32 interface for Win NT & 2000

Used output format : User Defined EncoderSelected bitrate : 1024 kBit/sQuality : HighAdd ID3 tag : NoCommand line compressor : C:\Program Files (x86)\Exact Audio Copy\FLAC\FLAC.EXEAdditional command line options : -8 -V %s

TOC of the extracted CD

Track | Start | Length | Start sector | End sector --------------------------------------------------------- 1 | 0:00.00 | 3:51.10 | 0 | 17334 2 | 3:51.10 | 3:46.12 | 17335 | 34296 3 | 7:37.22 | 3:11.08 | 34297 | 48629 4 | 10:48.30 | 4:09.12 | 48630 | 67316 5 | 14:57.42 | 3:45.60 | 67317 | 84251 6 | 18:43.27 | 5:27.20 | 84252 | 108796 7 | 24:10.47 | 3:40.05 | 108797 | 125301 8 | 27:50.52 | 4:37.18 | 125302 | 146094 9 | 32:27.70 | 3:35.67 | 146095 | 162286 10 | 36:03.62 | 3:16.48 | 162287 | 177034 11 | 39:20.35 | 4:47.07 | 177035 | 198566 12 | 44:07.42 | 4:35.55 | 198567 | 219246 13 | 48:43.22 | 4:52.53 | 219247 | 241199 14 | 53:36.00 | 5:18.37 | 241200 | 265086 15 | 58:54.37 | 4:56.30 | 265087 | 287316 16 | 63:50.67 | 2:41.43 | 287317 | 299434 17 | 66:32.35 | 3:15.07 | 299435 | 314066 18 | 69:47.42 | 2:04.10 | 314067 | 323376 19 | 71:51.52 | 3:17.33 | 323377 | 338184

Range status and errors

Selected range

Filename G:\Download\Музыка LossLess\Fleetwood Mac\1992 - Fleetwood Mac - The Chain [2012, 4CD, Warner Bros., 8122797302]\CD3\Fleetwood Mac - 25 Years The Chain (CD3).wav

Peak level 98.8 % Extraction speed 0.2 X Range quality 100.0 % Test CRC BDE0C020 Copy CRC BDE0C020 Copy OK

No errors occurred

AccurateRip summary

Track 1 cannot be verified as accurate (confidence 16) [9339A06F], AccurateRip returned [5C0FCA48]Track 2 cannot be verified as accurate (confidence 16) [BB4ACEAB], AccurateRip returned [542F123E]Track 3 cannot be verified as accurate (confidence 16) [CBBB0B84], AccurateRip returned [1FC1A6E0]Track 4 cannot be verified as accurate (confidence 17) [0EAAA44C], AccurateRip returned [9DAE2F1C]Track 5 cannot be verified as accurate (confidence 17) [FF95088B], AccurateRip returned [71215AB3]Track 6 cannot be verified as accurate (confidence 17) [32848ABF], AccurateRip returned [AA084C6F]Track 7 cannot be verified as accurate (confidence 17) [ED8496EF], AccurateRip returned [0A7B475F]Track 8 cannot be verified as accurate (confidence 16) [052D1994], AccurateRip returned [59D0334F]Track 9 cannot be verified as accurate (confidence 17) [7B1E1659], AccurateRip returned [E733689E]Track 10 cannot be verified as accurate (confidence 17) [A78EDE2A], AccurateRip returned [84F7DA06]Track 11 cannot be verified as accurate (confidence 16) [1413DF56], AccurateRip returned [1AFCFABD]Track 12 cannot be verified as accurate (confidence 16) [0759D2E7], AccurateRip returned [A595179C]Track 13 cannot be verified as accurate (confidence 15) [6FFD58B3], AccurateRip returned [EFA3CA0B]Track 14 cannot be verified as accurate (confidence 15) [E5AF4FB2], AccurateRip returned [6F5D83BD]Track 15 cannot be verified as accurate (confidence 15) [4F6E5774], AccurateRip returned [22AF70C5]Track 16 cannot be verified as accurate (confidence 15) [40B78579], AccurateRip returned [7FEFF4ED]Track 17 cannot be verified as accurate (confidence 16) [5E6082C5], AccurateRip returned [8BD21C25]Track 18 cannot be verified as accurate (confidence 16) [D58404F9], AccurateRip returned [D94955D1]Track 19 cannot be verified as accurate (confidence 14) [24DD7AFF], AccurateRip returned [D2F6308F]

No tracks could be verified as accurateYou may have a different pressing from the one(s) in the database

End of status report
  
Exact Audio Copy V1.0 beta 1 from 15. November 2010

EAC extraction logfile from 30. June 2012, 14:49

Fleetwood Mac / 25 Years The Chain (CD4)

Used drive : Optiarc DVD RW AD-5200S Adapter: 2 ID: 0

Read mode : SecureUtilize accurate stream : YesDefeat audio cache : YesMake use of C2 pointers : No

Read offset correction : 48Overread into Lead-In and Lead-Out : NoFill up missing offset samples with silence : YesDelete leading and trailing silent blocks : NoNull samples used in CRC calculations : YesUsed interface : Native Win32 interface for Win NT & 2000

Used output format : User Defined EncoderSelected bitrate : 1024 kBit/sQuality : HighAdd ID3 tag : NoCommand line compressor : C:\Program Files (x86)\Exact Audio Copy\FLAC\FLAC.EXEAdditional command line options : -8 -V %s

TOC of the extracted CD

Track | Start | Length | Start sector | End sector --------------------------------------------------------- 1 | 0:00.00 | 2:52.50 | 0 | 12949 2 | 2:52.50 | 3:54.70 | 12950 | 30569 3 | 6:47.45 | 3:30.05 | 30570 | 46324 4 | 10:17.50 | 3:30.35 | 46325 | 62109 5 | 13:48.10 | 2:21.45 | 62110 | 72729 6 | 16:09.55 | 4:37.42 | 72730 | 93546 7 | 20:47.22 | 3:12.20 | 93547 | 107966 8 | 23:59.42 | 2:51.63 | 107967 | 120854 9 | 26:51.30 | 5:01.47 | 120855 | 143476 10 | 31:53.02 | 2:53.58 | 143477 | 156509 11 | 34:46.60 | 4:14.37 | 156510 | 175596 12 | 39:01.22 | 2:15.50 | 175597 | 185771 13 | 41:16.72 | 5:41.33 | 185772 | 211379 14 | 46:58.30 | 3:41.37 | 211380 | 227991 15 | 50:39.67 | 4:32.28 | 227992 | 248419 16 | 55:12.20 | 4:48.07 | 248420 | 270026 17 | 60:00.27 | 3:34.58 | 270027 | 286134 18 | 63:35.10 | 4:08.05 | 286135 | 304739 19 | 67:43.15 | 4:54.70 | 304740 | 326859

Range status and errors

Selected range

Filename G:\Download\Музыка LossLess\Fleetwood Mac\1992 - Fleetwood Mac - The Chain [2012, 4CD, Warner Bros., 8122797302]\CD4\Fleetwood Mac - 25 Years The Chain (CD4).wav

Peak level 97.7 % Extraction speed 0.3 X Range quality 100.0 % Test CRC F6841F2F Copy CRC F6841F2F Copy OK

No errors occurred

AccurateRip summary

Track 1 cannot be verified as accurate (confidence 16) [0F3D1DA1], AccurateRip returned [974DBF01]Track 2 cannot be verified as accurate (confidence 16) [A0530B33], AccurateRip returned [EAE23A0F]Track 3 cannot be verified as accurate (confidence 17) [F0E717E6], AccurateRip returned [C3F07E0E]Track 4 cannot be verified as accurate (confidence 15) [C5E9686D], AccurateRip returned [4272DB29]Track 5 cannot be verified as accurate (confidence 15) [48A2404B], AccurateRip returned [9C13EE73]Track 6 cannot be verified as accurate (confidence 16) [ADDFCCD4], AccurateRip returned [2E6E15B0]Track 7 cannot be verified as accurate (confidence 16) [2BA6AB01], AccurateRip returned [FF44B531]Track 8 cannot be verified as accurate (confidence 15) [6927ED9A], AccurateRip returned [CBCF01A2]Track 9 cannot be verified as accurate (confidence 16) [CE2A4686], AccurateRip returned [B9EA1FBE]Track 10 cannot be verified as accurate (confidence 16) [D11B7C57], AccurateRip returned [11E24713]Track 11 cannot be verified as accurate (confidence 15) [9FCCBCAF], AccurateRip returned [81125FEB]Track 12 cannot be verified as accurate (confidence 15) [53EB4894], AccurateRip returned [08CED68C]Track 13 cannot be verified as accurate (confidence 15) [CA0D1830], AccurateRip returned [96DEF8A4]Track 14 cannot be verified as accurate (confidence 14) [F9F883C3], AccurateRip returned [ADBC70A7]Track 15 cannot be verified as accurate (confidence 15) [994D0009], AccurateRip returned [01DBD2E5]Track 16 cannot be verified as accurate (confidence 15) [3739E447], AccurateRip returned [97154227]Track 17 cannot be verified as accurate (confidence 16) [23DC50D4], AccurateRip returned [1EEB6450]Track 18 cannot be verified as accurate (confidence 15) [6BA8B6EA], AccurateRip returned [8CC8966E]Track 19 cannot be verified as accurate (confidence 14) [6DDF9C42], AccurateRip returned [EE14F3D6]

No tracks could be verified as accurateYou may have a different pressing from the one(s) in the database

End of status report
  
REM GENRE "Blues Rock"REM DATE 1992REM DISCID F9113511REM COMMENT "ExactAudioCopy v1.0b1"PERFORMER "Fleetwood Mac"TITLE "25 Years The Chain (CD1) "FILE "Fleetwood Mac - 25 Years The Chain (CD1).flac" WAVE TRACK 01 AUDIO TITLE "Paper Doll" PERFORMER "Fleetwood Mac" INDEX 01 00:00:00 TRACK 02 AUDIO TITLE "Love Shines" PERFORMER "Fleetwood Mac" INDEX 00 03:56:67 INDEX 01 03:57:05 TRACK 03 AUDIO TITLE "Stand Back (Live)" PERFORMER "Fleetwood Mac" INDEX 01 08:45:02 TRACK 04 AUDIO TITLE "Crystal" PERFORMER "Fleetwood Mac" INDEX 00 13:47:22 INDEX 01 13:47:72 TRACK 05 AUDIO TITLE "Isn't It Midnight" PERFORMER "Fleetwood Mac" INDEX 01 18:56:62 TRACK 06 AUDIO TITLE "Big Love" PERFORMER "Fleetwood Mac" INDEX 00 22:59:27 INDEX 01 23:00:00 TRACK 07 AUDIO TITLE "Everywhere" PERFORMER "Fleetwood Mac" INDEX 00 26:39:17 INDEX 01 26:40:42 TRACK 08 AUDIO TITLE "Affairs Of The Heart" PERFORMER "Fleetwood Mac" INDEX 01 30:23:10 TRACK 09 AUDIO TITLE "Heart Of Stone" PERFORMER "Fleetwood Mac" INDEX 00 34:42:50 INDEX 01 34:43:35 TRACK 10 AUDIO TITLE "Sara" PERFORMER "Fleetwood Mac" INDEX 01 39:22:32 TRACK 11 AUDIO TITLE "That's All For Everyone" PERFORMER "Fleetwood Mac" INDEX 00 45:48:57 INDEX 01 45:49:00 TRACK 12 AUDIO TITLE "Over My Head" PERFORMER "Fleetwood Mac" INDEX 00 48:51:47 INDEX 01 48:52:07 TRACK 13 AUDIO TITLE "Little Lies" PERFORMER "Fleetwood Mac" INDEX 00 52:25:62 INDEX 01 52:26:45 TRACK 14 AUDIO TITLE "Eyes Of The World" PERFORMER "Fleetwood Mac" INDEX 00 56:04:55 INDEX 01 56:05:27 TRACK 15 AUDIO TITLE "Oh Diane" PERFORMER "Fleetwood Mac" INDEX 00 59:47:30 INDEX 01 59:48:25 TRACK 16 AUDIO TITLE "In The Back Of My Mind" PERFORMER "Fleetwood Mac" INDEX 00 62:21:27 INDEX 01 62:21:57 TRACK 17 AUDIO TITLE "Make Me A Mask" PERFORMER "Fleetwood Mac" INDEX 00 69:22:50 INDEX 01 69:23:27
  
REM GENRE "Blues Rock"REM DATE 1992REM DISCID F710F111REM COMMENT "ExactAudioCopy v1.0b1"PERFORMER "Fleetwood Mac"TITLE "25 Years The Chain (CD2)"FILE "Fleetwood Mac - 25 Years The Chain (CD2).flac" WAVE TRACK 01 AUDIO TITLE "Save Me" PERFORMER "Fleetwood Mac" INDEX 01 00:00:00 TRACK 02 AUDIO TITLE "Goodbye Angel" PERFORMER "Fleetwood Mac" INDEX 00 04:14:25 INDEX 01 04:14:68 TRACK 03 AUDIO TITLE "Silver Springs" PERFORMER "Fleetwood Mac" INDEX 00 07:20:65 INDEX 01 07:21:10 TRACK 04 AUDIO TITLE "What Makes You Think You're The One" PERFORMER "Fleetwood Mac" INDEX 01 11:50:38 TRACK 05 AUDIO TITLE "Think About Me" PERFORMER "Fleetwood Mac" INDEX 00 15:20:70 INDEX 01 15:21:25 TRACK 06 AUDIO TITLE "Gypsy" PERFORMER "Fleetwood Mac" INDEX 00 18:01:40 INDEX 01 18:02:10 TRACK 07 AUDIO TITLE "You Make Loving Fun" PERFORMER "Fleetwood Mac" INDEX 00 23:22:73 INDEX 01 23:23:18 TRACK 08 AUDIO TITLE "Second Hand News" PERFORMER "Fleetwood Mac" INDEX 00 26:53:40 INDEX 01 26:54:40 TRACK 09 AUDIO TITLE "Love In Store" PERFORMER "Fleetwood Mac" INDEX 00 29:44:11 INDEX 01 29:44:25 TRACK 10 AUDIO TITLE "The Chain" PERFORMER "Fleetwood Mac" INDEX 01 33:07:68 TRACK 11 AUDIO TITLE "Teen Beat" PERFORMER "Fleetwood Mac" INDEX 01 37:27:33 TRACK 12 AUDIO TITLE "Dreams" PERFORMER "Fleetwood Mac" INDEX 00 40:09:58 INDEX 01 40:10:50 TRACK 13 AUDIO TITLE "Only Over You" PERFORMER "Fleetwood Mac" INDEX 00 44:25:10 INDEX 01 44:26:60 TRACK 14 AUDIO TITLE "I'm So Afraid" PERFORMER "Fleetwood Mac" INDEX 01 48:32:18 TRACK 15 AUDIO TITLE "Love Is Dangerous" PERFORMER "Fleetwood Mac" INDEX 00 55:58:25 INDEX 01 55:59:55 TRACK 16 AUDIO TITLE "Gold Dust Woman" PERFORMER "Fleetwood Mac" INDEX 00 59:15:65 INDEX 01 59:18:45 TRACK 17 AUDIO TITLE "Not That Funny" PERFORMER "Fleetwood Mac" INDEX 00 64:20:11 INDEX 01 64:21:15
  
REM GENRE "Blues Rock"REM DATE 1992REM DISCID 29119D13REM COMMENT "ExactAudioCopy v1.0b1"PERFORMER "Fleetwood Mac"TITLE "25 Years The Chain (CD3)"FILE "Fleetwood Mac - 25 Years The Chain (CD3).flac" WAVE TRACK 01 AUDIO TITLE "Warm Ways" PERFORMER "Fleetwood Mac" INDEX 01 00:00:00 TRACK 02 AUDIO TITLE "Say You Love Me" PERFORMER "Fleetwood Mac" INDEX 01 03:51:10 TRACK 03 AUDIO TITLE "Don't Stop" PERFORMER "Fleetwood Mac" INDEX 00 07:36:15 INDEX 01 07:37:22 TRACK 04 AUDIO TITLE "Rhiannon" PERFORMER "Fleetwood Mac" INDEX 00 10:48:05 INDEX 01 10:48:30 TRACK 05 AUDIO TITLE "Walk A Thin Line" PERFORMER "Fleetwood Mac" INDEX 01 14:57:42 TRACK 06 AUDIO TITLE "Storms" PERFORMER "Fleetwood Mac" INDEX 00 18:42:23 INDEX 01 18:43:27 TRACK 07 AUDIO TITLE "Go Your Own Way" PERFORMER "Fleetwood Mac" INDEX 01 24:10:47 TRACK 08 AUDIO TITLE "Sisters Of The Moon" PERFORMER "Fleetwood Mac" INDEX 00 27:49:40 INDEX 01 27:50:52 TRACK 09 AUDIO TITLE "Monday Morning" PERFORMER "Fleetwood Mac" INDEX 01 32:27:70 TRACK 10 AUDIO TITLE "Landslide" PERFORMER "Fleetwood Mac" INDEX 00 36:03:30 INDEX 01 36:03:62 TRACK 11 AUDIO TITLE "Hypnotized" PERFORMER "Fleetwood Mac" INDEX 01 39:20:35 TRACK 12 AUDIO TITLE "Lay It All Down" PERFORMER "Fleetwood Mac" INDEX 01 44:07:42 TRACK 13 AUDIO TITLE "Angel" PERFORMER "Fleetwood Mac" INDEX 00 48:41:70 INDEX 01 48:43:22 TRACK 14 AUDIO TITLE "Beautiful Child" PERFORMER "Fleetwood Mac" INDEX 00 53:35:10 INDEX 01 53:36:00 TRACK 15 AUDIO TITLE "Brown Eyes" PERFORMER "Fleetwood Mac" INDEX 01 58:54:37 TRACK 16 AUDIO TITLE "Save Me A Place" PERFORMER "Fleetwood Mac" INDEX 00 63:50:15 INDEX 01 63:50:67 TRACK 17 AUDIO TITLE "Tusk" PERFORMER "Fleetwood Mac" INDEX 00 66:30:42 INDEX 01 66:32:35 TRACK 18 AUDIO TITLE "Never Going Back Again" PERFORMER "Fleetwood Mac" INDEX 00 69:44:70 INDEX 01 69:47:42 TRACK 19 AUDIO TITLE "Songbird" PERFORMER "Fleetwood Mac" INDEX 00 71:49:57 INDEX 01 71:51:52
  
REM GENRE "Blues Rock"REM DATE 1992REM DISCID FB110613REM COMMENT "ExactAudioCopy v1.0b1"PERFORMER "Fleetwood Mac"TITLE "25 Years The Chain (CD4)"FILE "Fleetwood Mac - 25 Years The Chain (CD4).flac" WAVE TRACK 01 AUDIO TITLE "I Believe My Time Ain't Long" PERFORMER "Fleetwood Mac" INDEX 01 00:00:00 TRACK 02 AUDIO TITLE "Need Your Love So Bad" PERFORMER "Fleetwood Mac" INDEX 00 02:51:52 INDEX 01 02:52:50 TRACK 03 AUDIO TITLE "Rattlesnake Shake" PERFORMER "Fleetwood Mac" INDEX 00 06:46:17 INDEX 01 06:47:45 TRACK 04 AUDIO TITLE "Oh Well Part 1" PERFORMER "Fleetwood Mac" INDEX 00 10:16:42 INDEX 01 10:17:50 TRACK 05 AUDIO TITLE "Stop Messin' Around" PERFORMER "Fleetwood Mac" INDEX 00 13:46:57 INDEX 01 13:48:10 TRACK 06 AUDIO TITLE "Green Manalishi" PERFORMER "Fleetwood Mac" INDEX 00 16:07:30 INDEX 01 16:09:55 TRACK 07 AUDIO TITLE "Albatross" PERFORMER "Fleetwood Mac" INDEX 00 20:45:55 INDEX 01 20:47:22 TRACK 08 AUDIO TITLE "Man Of The World" PERFORMER "Fleetwood Mac" INDEX 00 23:58:07 INDEX 01 23:59:42 TRACK 09 AUDIO TITLE "Love That Burns" PERFORMER "Fleetwood Mac" INDEX 00 26:50:52 INDEX 01 26:51:30 TRACK 10 AUDIO TITLE "Black Magic Woman" PERFORMER "Fleetwood Mac" INDEX 00 31:52:22 INDEX 01 31:53:02 TRACK 11 AUDIO TITLE "Watch Out" PERFORMER "Fleetwood Mac" INDEX 00 34:44:40 INDEX 01 34:46:60 TRACK 12 AUDIO TITLE "String-A-Long" PERFORMER "Fleetwood Mac" INDEX 00 38:59:07 INDEX 01 39:01:22 TRACK 13 AUDIO TITLE "Station Man" PERFORMER "Fleetwood Mac" INDEX 01 41:16:72 TRACK 14 AUDIO TITLE "Did You Ever Love Me" PERFORMER "Fleetwood Mac" INDEX 00 46:57:50 INDEX 01 46:58:30 TRACK 15 AUDIO TITLE "Sentimental Lady" PERFORMER "Fleetwood Mac" INDEX 00 50:38:35 INDEX 01 50:39:67 TRACK 16 AUDIO TITLE "Come A Little Bit Closer" PERFORMER "Fleetwood Mac" INDEX 00 55:12:02 INDEX 01 55:12:20 TRACK 17 AUDIO TITLE "Heros Are Hard To Find" PERFORMER "Fleetwood Mac" INDEX 00 59:59:25 INDEX 01 60:00:27 TRACK 18 AUDIO TITLE "Trinity" PERFORMER "Fleetwood Mac" INDEX 00 63:34:22 INDEX 01 63:35:10 TRACK 19 AUDIO TITLE "Why" PERFORMER "Fleetwood Mac" INDEX 00 67:42:22 INDEX 01 67:43:15
  
AUDIOCHECKER v2.0 beta (build 457) - by Dester - <a href="mailto:opdester@freemail.hu" class="postLink">opdester@freemail.hu</a>~~~~~~~~~~~~~~~~~~~~~~~~~~~~~~~~~~-=== DO NOT EDIT THIS FILE! ===-

Path: ...\CD1

1 -=- Fleetwood Mac - 25 Years The Chain (CD1).flac -=- CDDA (100%)

2502260
  
AUDIOCHECKER v2.0 beta (build 457) - by Dester - <a href="mailto:opdester@freemail.hu" class="postLink">opdester@freemail.hu</a>~~~~~~~~~~~~~~~~~~~~~~~~~~~~~~~~~~-=== DO NOT EDIT THIS FILE! ===-

Path: ...\CD2

1 -=- Fleetwood Mac - 25 Years The Chain (CD2).flac -=- CDDA (100%)

8072820
  
AUDIOCHECKER v2.0 beta (build 457) - by Dester - <a href="mailto:opdester@freemail.hu" class="postLink">opdester@freemail.hu</a>~~~~~~~~~~~~~~~~~~~~~~~~~~~~~~~~~~-=== DO NOT EDIT THIS FILE! ===-

Path: ...\CD3

1 -=- Fleetwood Mac - 25 Years The Chain (CD3).flac -=- CDDA (99%)

117594964
  
AUDIOCHECKER v2.0 beta (build 457) - by Dester - <a href="mailto:opdester@freemail.hu" class="postLink">opdester@freemail.hu</a>~~~~~~~~~~~~~~~~~~~~~~~~~~~~~~~~~~-=== DO NOT EDIT THIS FILE! ===-

Path: ...\CD4

1 -=- Fleetwood Mac - 25 Years The Chain (CD4).flac -=- CDDA (100%)

2174580
Данный Бокс Сет первоначально был выпущен в 1992 году в двух вариантах:
- 4 CD
- 2 CD.
19 июня 2012 года вышло очередное переиздание Бок Сета в варианте 4 CD и представлено в данном релизе. Диски размещены в 4 CD BOX, в комплекте буклет на 68 страниц.
Если будет потребность, готов выложить вариант 2 CD.
Stevie Nicks – vocals
Peter Green – guitars, vocals, banjo
Jeremy Spencer – guitars, vocals
Danny Kirwan – guitars, vocals
Bob Welch – guitars, vocals
Bob Weston – guitars, vocals
Lindsey Buckingham – guitars, vocals
Billy Burnette – guitars, vocals
Rick Vito – guitars, vocals
Christine McVie – keyboards, vocals
John McVie – bass guitar
Mick Fleetwood – percussion, drums
Executive Producers – Mick Fleetwood and John McVie
Anthology produced and engineered by Ken Caillat
Historical research and coordination – Frank Harding


Трекер:  [ 03-Июл-2012 17:44 ]

  

Скачать .torrent

Размер .torrent файла 19 KB


Размер: 3.04 GB
Хэш (hash) релиза: bdece9201fdbc72aed8922edd4d78e554fa9e043

Еще никто не оставлял запись к записи скачать торрент Fleetwood Mac - 25 years - The Chain . Будь первым!

!Обратная связь