Скачать через торрент музыку Joe Walsh - Analog Man - 2012, FLAC бесплатно без регистрации torrent

Если у вас наблюдаются проблемы со скриншотами, переходом по ссылками, скачиванием торрентов - проблемы в блокировщике рекламы AdBlock. #хорошегоДня!


Статистика раздачи
Размер:  480 MB   |    Зарегистрирован:  5 лет 1 месяц   |    .torrent скачан:  26 раз   |   
Раздают:  1  
   
Загрузка...
 
Автор Сообщение

Umakiro

avatar Umakiro


Joe Walsh / Analog Man

Жанр: Hard Rock Classic
Страна-производитель диска: Пираты России
Год издания: 2012
Аудиокодек: FLAC (*.flac)
Тип рипа: image+.cue
Битрейт аудио: lossless
Продолжительность: 36:38
Источник (релизер): Диск свой, Рип Свой
Наличие сканов в содержимом раздачи: да
Треклист:
CD: Joe Walsh - Analog Man

01. Analog Man [0:04:02.74]
02. Wrecking Ball [0:03:45.40]
03. Lucky That Way [0:04:14.40]
04. Spanish Dancer [0:03:49.42]
05. Band Played On [0:04:03.43]
06. Family [0:04:21.53]
07. One Day at a Time [0:03:18.07]
08. Hi-Roller Baby [0:03:18.47]
09. Funk 50 [0:01:57.23]
10. India [0:03:44.12]
  
Exact Audio Copy V1.0 beta 3 from 29. August 2011

Отчёт EAC об извлечении, выполненном 27. июня 2012, 13:54

Joe Walsh / Analog Man

Дисковод: PLEXTOR DVDR PX-750A Adapter: 1 ID: 0

Режим чтения : ДостоверностьИспользование точного потока : ДаОтключение кэша аудио : ДаИспользование указателей C2 : Нет

Коррекция смещения при чтении : 102Способность читать области Lead-in и Lead-out : НетЗаполнение пропущенных сэмплов тишиной : ДаУдаление блоков с тишиной в начале и конце : НетПри вычислениях CRC использовались нулевые сэмплы : ДаИнтерфейс : Встроенный Win32-интерфейс для Win NT/2000

Выходной формат : Пользовательский кодировщикВыбранный битрейт : 896 kBit/sКачество : ВысокийДобавление ID3-тега : ДаУтилита сжатия : C:\Program Files\Exact Audio Copy\FLAC\FLAC.EXEДополнительные параметры : -6 -V -T "ARTIST=%artist%" -T "TITLE=%title%" -T "ALBUM=%albumtitle%" -T "DATE=%year%" -T "TRACKNUMBER=%tracknr%" -T "GENRE=%genre%" -T "COMMENT=%comment%" -T "BAND=%albuminterpret%" -T "ALBUMARTIST=%albuminterpret%" -T "COMPOSER=%composer%" %haslyrics%--tag-from-file=LYRICS="%lyricsfile%"%haslyrics% -T "DISCNUMBER=%cdnumber%" -T "TOTALDISCS=%totalcds%" -T "TOTALTRACKS=%numtracks%" %hascover%--picture="%coverfile%"%hascover% %source% -o %dest%

TOC извлечённого CD

Трек | Старт | Длительность | Начальный сектор | Конечный сектор --------------------------------------------------------------------- 1 | 0:00.00 | 4:02.74 | 0 | 18223 2 | 4:02.74 | 3:45.40 | 18224 | 35138 3 | 7:48.39 | 4:14.40 | 35139 | 54228 4 | 12:03.04 | 3:49.42 | 54229 | 71445 5 | 15:52.46 | 4:03.43 | 71446 | 89713 6 | 19:56.14 | 4:21.53 | 89714 | 109341 7 | 24:17.67 | 3:18.07 | 109342 | 124198 8 | 27:35.74 | 3:18.47 | 124199 | 139095 9 | 30:54.46 | 1:57.23 | 139096 | 147893 10 | 32:51.69 | 3:44.12 | 147894 | 164705

Характеристики диапазона извлечения и сообщения об ошибках

Выбранный диапазон

Имя файла C:\Documents and Settings\Admin\Рабочий стол\NEW CD June, 26\Joe Walsh - Analog Man - 2012 - 36'38''\Joe Walsh - Analog Man.wav

Пиковый уровень 100.0 % Скорость извлечения 6.8 X Качество диапазона 100.0 % CRC теста 8F6C6905 CRC копии 8F6C6905 Копирование... OK

Ошибок не произошло

Конец отчёта

==== Контрольная сумма отчёта 6E0C457E0C45FE56AC29B5F9EF6D0D91015FE58EB98DACFA4A740C8888D90AB2 ====
  
-----------------------

DON'T MODIFY THIS FILE

-----------------------

PERFORMER: auCDtect Task Manager, ver. 1.5.1RC4 build 1.5.1.5Copyright (c) 2008-2010 y-soft. All rights reservedhttp://y-soft.org

ANALYZER: auCDtect: CD records authenticity detector, version 0.8.2Copyright (c) 2004 Oleg Berngardt. All rights reserved.Copyright (c) 2004 Alexander Djourik. All rights reserved.

FILE: Joe Walsh - Analog Man.flac Size: 272550527 Hash: 060A731D17F11AEF28BDCC9303F549FE Accuracy: -m0 Conclusion: CDDA 100% Signature: 9532B69883C756C0B41F249ABA8B1B2B8F1FA318
Доп. информация: для самых скрупулёзно-взыскательных меломанов (по-поводу корректности рипа)

Трекер:  [ 03-Июл-2012 17:44 ]

  

Скачать .torrent

Размер .torrent файла 20 KB


Размер: 480 MB
Хэш (hash) релиза: 3b12bc48baa350a4942f6082f1c0da8c8f1e0a7a

Торренты, похожие на Joe Walsh - Analog Man - 2012, FLAC скачать торрент

Форум Название Автор Размер S L Добавлен
Rосk | Mеtаl | Аltеrnаtivе, Рunk, Indереndеnt (losslеss) ·· (Hard Rock | Blues Rock) Joe Walsh - Analog Man (Deluxe Edition+Bonus tracks) - 2012, FLAC (image+.cue), lossless Galfimbul 573360554547 MB 0 0 1365238139

11:48

6-Апр-13

Rосk | Mеtаl | Аltеrnаtivе, Рunk, Indереndеnt (losslеss) ·· (Classic Rock / Southern Rock) Joe Walsh - Analog Man (Deluxe Edition) - 2012, FLAC (tracks), lossless Umakiro 361570901345 MB 0 0 1339479240

08:34

12-Июн-12

Еще никто не оставлял запись к записи скачать торрент Joe Walsh - Analog Man - 2012, FLAC . Будь первым!

!Обратная связь