Скачать через торрент музыку Grand Funk Railroad - Discography Дискография бесплатно без регистрации torrent

Если у вас наблюдаются проблемы со скриншотами, переходом по ссылками, скачиванием торрентов - проблемы в блокировщике рекламы AdBlock. #хорошегоДня!


Статистика раздачи
Размер:  5.92 GB   |    Зарегистрирован:  5 лет 4 месяца   |    .torrent скачан:  72 раза   |   
Раздают:  1  
   
Загрузка...
 
Автор Сообщение

Umakiro

avatar Umakiro


Grand Funk Railroad
Discography
[Studio & Live Albums]

Жанр: Hard Rock
Год выпуска дисков: 1988-2008
Страна: USA
Аудиокодек: FLAC
Тип рипа: image+.cue/tracks+.cue
Битрейт аудио: lossless
Продолжительность: 14:46:01
Наличие сканов: присутствуют
Grand Funk Railroad (или Grand Funk) — американская хард-рок-группа, образованная в 1969 году и ставшая известной в 1970 году, когда о ней заговорили как о «самой громкой в мире». В течение 1969—1972 годов пять альбомов GFR стали платиновыми (остальные три — золотыми); общий альбомный тираж группы в 70-х годах составил более 25 миллионов. Grand Funk Railroad исполняли предельно упрощённый, но оглушительно-громкий вариант блюз-рока; впоследствии музыкальные критики стали упоминать их в числе провозвестников стоунер-рока.
Страна-производитель диска: Japan
Лейбл: Capitol Records
Номер по каталогу: CP21-6037
Год издания: 1989
Тип рипа: tracks+.cue
Продолжительность: 51:55
Источник: http://рутраскер [tw1xava]
1. Are You Ready (3:29)
2. Anybody's Answer (5:17)
3. Time Machine (3:45)
4. High On A Horse (2:56)
5. T.N.U.C. (8:42)
6. Into The Sun (6:29)
7. Heartbreaker (6:35)
8. Call Yourself A Man (3:06)
9. Can't Be Too Long (6:34)
10. Ups And Downs (5:01)
Don Brewer: Drums, Vocals
Mark Farner: Guitar, Harmonica, Keyboards, Vocals
Mel Schacher: Bass, Vocals
REM GENRE "Hard Rock"
REM DATE 1969
REM DISCID 780C2A0A
REM COMMENT "ExactAudioCopy v0.95b4"
PERFORMER "Grand Funk Railroad"
TITLE "On Time"
FILE "01. Are You Ready.flac" WAVE
TRACK 01 AUDIO
TITLE "Are You Ready"
PERFORMER "Grand Funk Railroad"
INDEX 01 00:00:00
TRACK 02 AUDIO
TITLE "Anybody's Answer"
PERFORMER "Grand Funk Railroad"
INDEX 00 03:28:32
FILE "02. Anybody's Answer.flac" WAVE
INDEX 01 00:00:00
TRACK 03 AUDIO
TITLE "The Machine"
PERFORMER "Grand Funk Railroad"
INDEX 00 05:16:67
FILE "03. The Machine.flac" WAVE
INDEX 01 00:00:00
TRACK 04 AUDIO
TITLE "High On A Horse"
PERFORMER "Grand Funk Railroad"
INDEX 00 03:44:27
FILE "04. High On A Horse.flac" WAVE
INDEX 01 00:00:00
TRACK 05 AUDIO
TITLE "T.N.U.C."
PERFORMER "Grand Funk Railroad"
INDEX 00 02:54:32
FILE "05. T.N.U.C..flac" WAVE
INDEX 01 00:00:00
TRACK 06 AUDIO
TITLE "Into The Sun"
PERFORMER "Grand Funk Railroad"
INDEX 00 08:41:15
FILE "06. Into The Sun.flac" WAVE
INDEX 01 00:00:00
TRACK 07 AUDIO
TITLE "Heartbreaker"
PERFORMER "Grand Funk Railroad"
INDEX 00 06:28:65
FILE "07. Heartbreaker.flac" WAVE
INDEX 01 00:00:00
TRACK 08 AUDIO
TITLE "Call Yourself A Man"
PERFORMER "Grand Funk Railroad"
INDEX 00 06:34:05
FILE "08. Call Yourself A Man.flac" WAVE
INDEX 01 00:00:00
TRACK 09 AUDIO
TITLE "Can't Be Too Long"
PERFORMER "Grand Funk Railroad"
INDEX 00 03:04:33
FILE "09. Can't Be Too Long.flac" WAVE
INDEX 01 00:00:00
TRACK 10 AUDIO
TITLE "Ups And Downs"
PERFORMER "Grand Funk Railroad"
INDEX 00 06:33:52
FILE "10. Ups And Downs.flac" WAVE
INDEX 01 00:00:00
EAC extraction logfile from 8. May 2008, 21:56 for CD
GRAND FUNK RAILROAD / On Time

Used drive : TSSTcorpCD/DVDW SH-S182M Adapter: 2 ID: 2
Read mode : Secure with NO C2, accurate stream, disable cache
Read offset correction : 6
Overread into Lead-In and Lead-Out : No

Used output format : C:\Program Files\FLAC\flac.exe (User Defined Encoder)
128 kBit/s
Additional command line options : -8 -V -T "ARTIST=%a" -T "TITLE=%t" -T "ALBUM=%g" -T "DATE=%y" -T "TRACKNUMBER=%n" -T "GENRE=%m" -T "COMMENT=EAC FLAC -8" %s

Other options :
Fill up missing offset samples with silence : Yes
Delete leading and trailing silent blocks : No
Installed external ASPI interface

Track 1
Filename C:\Grand Funk Railroad - On Time (1969) {Japanese 1989 release}\01 - Are You Ready.wav

Pre-gap length 0:00:02.00

Peak level 83.4 %
Track quality 100.0 %
Test CRC 9103AA26
Copy CRC 9103AA26
Copy OK

Track 2
Filename C:\Grand Funk Railroad - On Time (1969) {Japanese 1989 release}\02 - Anybody's Answer.wav

Pre-gap length 0:00:00.70

Peak level 91.0 %
Track quality 100.0 %
Test CRC C720F3B0
Copy CRC C720F3B0
Copy OK

Track 3
Filename C:\Grand Funk Railroad - On Time (1969) {Japanese 1989 release}\03 - The Machine.wav

Pre-gap length 0:00:00.50

Peak level 94.7 %
Track quality 100.0 %
Test CRC A14B2617
Copy CRC A14B2617
Copy OK

Track 4
Filename C:\Grand Funk Railroad - On Time (1969) {Japanese 1989 release}\04 - High On A Horse.wav

Pre-gap length 0:00:00.50

Peak level 95.0 %
Track quality 100.0 %
Test CRC 7327968E
Copy CRC 7327968E
Copy OK

Track 5
Filename C:\Grand Funk Railroad - On Time (1969) {Japanese 1989 release}\05 - T.N.U.C..wav

Pre-gap length 0:00:01.90

Peak level 100.0 %
Track quality 100.0 %
Test CRC 8567A92E
Copy CRC 8567A92E
Copy OK

Track 6
Filename C:\Grand Funk Railroad - On Time (1969) {Japanese 1989 release}\06 - Into The Sun.wav

Pre-gap length 0:00:01.16

Peak level 100.0 %
Track quality 100.0 %
Test CRC FC69A791
Copy CRC FC69A791
Copy OK

Track 7
Filename C:\Grand Funk Railroad - On Time (1969) {Japanese 1989 release}\07 - Heartbreaker.wav

Pre-gap length 0:00:00.46

Peak level 97.2 %
Track quality 100.0 %
Test CRC CDE5086E
Copy CRC CDE5086E
Copy OK

Track 8
Filename C:\Grand Funk Railroad - On Time (1969) {Japanese 1989 release}\08 - Call Yourself A Man.wav

Pre-gap length 0:00:00.86

Peak level 95.1 %
Track quality 100.0 %
Test CRC A0DAC29C
Copy CRC A0DAC29C
Copy OK

Track 9
Filename C:\Grand Funk Railroad - On Time (1969) {Japanese 1989 release}\09 - Can't Be Too Long.wav

Pre-gap length 0:00:01.13

Peak level 97.3 %
Track quality 100.0 %
Test CRC 3BBEBEE8
Copy CRC 3BBEBEE8
Copy OK

Track 10
Filename C:\Grand Funk Railroad - On Time (1969) {Japanese 1989 release}\10 - Ups And Downs.wav

Pre-gap length 0:00:00.24

Peak level 95.9 %
Track quality 100.0 %
Test CRC 5DBA1AE9
Copy CRC 5DBA1AE9
Copy OK

No errors occured

End of status report
Страна-производитель диска: Japan
Лейбл: Capirol Records
Номер по каталогу: CP21-6038
Год издания: 1989
Тип рипа: tracks+.cue
Продолжительность: 48:29
Источник: what.cd [cryptocat]
1. Got This Thing On The Move (4:40)
2. Please Don't Worry (4:21)
3. High Falootin' Woman (3:02)
4. Mr. Limousine Driver (4:27)
5. In Need (7:54)
6. Winter And My Soul (6:40)
7. Paranoid (7:52)
8. Inside Looking Out (9:32)
Don Brewer: Drums, Vocals
Mark Farner: Guitar, Harmonica, Keyboards, Vocals
Mel Schacher: Bass
REM GENRE "Hard Rock"
REM DATE 1969
REM DISCID 730B5C08
REM COMMENT "ExactAudioCopy v0.99pb4"
FILE "01. Got This Thing On The Move.flac" WAVE
TRACK 01 AUDIO
INDEX 01 00:00:00
TRACK 02 AUDIO
FLAGS DCP
INDEX 00 04:38:30
FILE "02. Please Don't Worry.flac" WAVE
INDEX 01 00:00:00
TRACK 03 AUDIO
FLAGS DCP
INDEX 00 04:19:58
FILE "03. High Falootin' Woman.flac" WAVE
INDEX 01 00:00:00
TRACK 04 AUDIO
FLAGS DCP
INDEX 00 03:00:23
FILE "04. Mr. Limousine Driver.flac" WAVE
INDEX 01 00:00:00
TRACK 05 AUDIO
FLAGS DCP
INDEX 00 04:26:08
FILE "05. In Need.flac" WAVE
INDEX 01 00:00:00
TRACK 06 AUDIO
FLAGS DCP
INDEX 00 07:52:43
FILE "06. Winter And My Soul.flac" WAVE
INDEX 01 00:00:00
TRACK 07 AUDIO
FLAGS DCP
INDEX 00 06:38:07
FILE "07. Paranoid.flac" WAVE
INDEX 01 00:00:00
TRACK 08 AUDIO
FLAGS DCP
INDEX 00 07:50:05
FILE "08. Inside Looking Out.flac" WAVE
INDEX 01 00:00:00
Exact Audio Copy V0.99 prebeta 4 from 23. January 2008

EAC extraction logfile from 10. November 2009, 17:28

Grand Funk Railroad / Grand Funk

Used drive : PLEXTOR DVDR PX-740A Adapter: 1 ID: 1

Read mode : Secure
Utilize accurate stream : Yes
Defeat audio cache : Yes
Make use of C2 pointers : No

Read offset correction : 618
Overread into Lead-In and Lead-Out : No
Fill up missing offset samples with silence : Yes
Delete leading and trailing silent blocks : No
Null samples used in CRC calculations : No
Used interface : Native Win32 interface for Win NT & 2000
Gap handling : Appended to previous track

Used output format : User Defined Encoder
Selected bitrate : 128 kBit/s
Quality : High
Add ID3 tag : No
Command line compressor : C:\Users\1975\Downloads\flac-1.2.1-win\bin\flac.exe
Additional command line options : -V -8 -T "artist=%a" -T "title=%t" -T "album=%g" -T "date=%y" -T "tracknumber=%n" -T "genre=%m" %s

TOC of the extracted CD

Track | Start | Length | Start sector | End sector
---------------------------------------------------------
1 | 0:00.00 | 4:40.02 | 0 | 21001
2 | 4:40.02 | 4:20.70 | 21002 | 40571
3 | 9:00.72 | 3:02.25 | 40572 | 54246
4 | 12:03.22 | 4:27.30 | 54247 | 74301
5 | 16:30.52 | 7:54.38 | 74302 | 109889
6 | 24:25.15 | 6:39.42 | 109890 | 139856
7 | 31:04.57 | 7:52.35 | 139857 | 175291
8 | 38:57.17 | 9:31.53 | 175292 | 218169

Track 1

Filename J:\EAC_rips\Grand Funk Railroad - 1970 - Grand Funk\01 - Got This Thing On The Move.wav

Pre-gap length 0:00:02.00

Peak level 100.0 %
Track quality 100.0 %
Test CRC AE68128F
Copy CRC AE68128F
Track not present in AccurateRip database
Copy OK

Track 2

Filename J:\EAC_rips\Grand Funk Railroad - 1970 - Grand Funk\02 - Please Don't Worry.wav

Pre-gap length 0:00:01.62

Peak level 98.1 %
Track quality 100.0 %
Test CRC 9FD81E9B
Copy CRC 9FD81E9B
Track not present in AccurateRip database
Copy OK

Track 3

Filename J:\EAC_rips\Grand Funk Railroad - 1970 - Grand Funk\03 - High Falootin' Woman.wav

Pre-gap length 0:00:01.16

Peak level 100.0 %
Track quality 100.0 %
Test CRC 0DD29AFA
Copy CRC 0DD29AFA
Track not present in AccurateRip database
Copy OK

Track 4

Filename J:\EAC_rips\Grand Funk Railroad - 1970 - Grand Funk\04 - Mr. Limousine Driver.wav

Pre-gap length 0:00:02.02

Peak level 100.0 %
Track quality 100.0 %
Test CRC CAB88A51
Copy CRC CAB88A51
Track not present in AccurateRip database
Copy OK

Track 5

Filename J:\EAC_rips\Grand Funk Railroad - 1970 - Grand Funk\05 - In Need.wav

Pre-gap length 0:00:01.29

Peak level 100.0 %
Track quality 99.9 %
Test CRC C9660178
Copy CRC C9660178
Track not present in AccurateRip database
Copy OK

Track 6

Filename J:\EAC_rips\Grand Funk Railroad - 1970 - Grand Funk\06 - Winter And My Soul.wav

Pre-gap length 0:00:01.93

Peak level 100.0 %
Track quality 100.0 %
Test CRC CE4A1149
Copy CRC CE4A1149
Track not present in AccurateRip database
Copy OK

Track 7

Filename J:\EAC_rips\Grand Funk Railroad - 1970 - Grand Funk\07 - Paranoid.wav

Pre-gap length 0:00:01.46

Peak level 100.0 %
Track quality 100.0 %
Test CRC 7C8426F8
Copy CRC 7C8426F8
Track not present in AccurateRip database
Copy OK

Track 8

Filename J:\EAC_rips\Grand Funk Railroad - 1970 - Grand Funk\08 - Inside Looking Out.wav

Pre-gap length 0:00:02.40

Peak level 100.0 %
Track quality 100.0 %
Test CRC B020D17F
Copy CRC B020D17F
Track not present in AccurateRip database
Copy OK

None of the tracks are present in the AccurateRip database

No errors occurred

End of status report
Страна-производитель диска: USA
Лейбл: Capirol Records
Номер по каталогу: CDP 0777 7 48429 2 1
Год издания: 1988
Тип рипа: image+.cue
Продолжительность: 44:50
Источник: kpnemo.ws [SW@T]
1. Sin's A Good Man's Brother (4:50)
2. Aimless Lady (3:28)
3. Nothing Is The Same (5:14)
4. Mean Mistreater (4:26)
5. Get It Together (5:08)
6. I Don't Have To Sing The Blues (4:37)
7. Hooked On Love (7:13)
8. I'm Your Captain (9:55)
Don Brewer: Drums, Vocals
Mark Farner: Guitar, Harmonica, Keyboards, Vocals
Mel Schacher: Bass, Vocals
REM GENRE Hard Rock
REM DATE 1970
REM DISCID 670A8208
REM COMMENT ExactAudioCopy v0.99pb5
CATALOG 0724384842921
PERFORMER "Grand Funk Railroad"
TITLE "Closer To Home"
FILE "Closer To Home.flac" WAVE
TRACK 01 AUDIO
TITLE "Sin's A Good Man's Brother"
ISRC `````0000000
INDEX 01 00:00:00
TRACK 02 AUDIO
TITLE "Aimless Lady"
ISRC `````0000000
INDEX 00 04:48:22
INDEX 01 04:49:65
TRACK 03 AUDIO
TITLE "Nothing Is The Same"
ISRC `````0000000
INDEX 00 08:17:30
INDEX 01 08:18:27
TRACK 04 AUDIO
TITLE "Mean Mistreater"
ISRC `````0000000
INDEX 00 13:30:50
INDEX 01 13:32:17
TRACK 05 AUDIO
TITLE "Get It Together"
ISRC `````0000000
INDEX 00 17:57:35
INDEX 01 17:57:65
TRACK 06 AUDIO
TITLE "I Don't Have To Sing The Blues"
ISRC `````0000000
INDEX 00 23:04:12
INDEX 01 23:05:30
TRACK 07 AUDIO
TITLE "Hooked On Love"
ISRC `````0000000
INDEX 00 27:40:55
INDEX 01 27:42:62
TRACK 08 AUDIO
TITLE "I'm Your Captain"
ISRC `````0000000
INDEX 00 34:54:07
INDEX 01 34:55:37
Exact Audio Copy V0.99 prebeta 5 from 4. May 2009

Отчёт EAC об извлечении, выполненном 11. февраля 2012, 13:47

Grand Funk Railroad / Closer To Home (CDP 7 48429 21)

Дисковод: HL-DT-STDVDRAM GH20NS10 Adapter: 1 ID: 0

Режим чтения : Достоверность
Использование точного потока : Да
Отключение кэша аудио : Да
Использование указателей C2 : Нет

Коррекция смещения при чтении : 667
Способность читать области Lead-in и Lead-out : Нет
Заполнение пропущенных сэмплов тишиной : Да
Удаление блоков с тишиной в начале и конце : Нет
При вычислениях CRC использовались нулевые сэмплы : Да
Интерфейс : Встроенный Win32-интерфейс для Win NT/2000

Выходной формат : Внутренние WAV-операции
Формат сэмплов : 44.100 Гц; 16 бит; стерео

TOC извлечённого CD

Трек | Старт | Длительность | Начальный сектор | Конечный сектор
---------------------------------------------------------------------
1 | 0:00.00 | 4:49.65 | 0 | 21739
2 | 4:49.65 | 3:28.37 | 21740 | 37376
3 | 8:18.27 | 5:13.65 | 37377 | 60916
4 | 13:32.17 | 4:25.48 | 60917 | 80839
5 | 17:57.65 | 5:07.40 | 80840 | 103904
6 | 23:05.30 | 4:37.32 | 103905 | 124711
7 | 27:42.62 | 7:12.50 | 124712 | 157161
8 | 34:55.37 | 9:54.45 | 157162 | 201756

Характеристики диапазона извлечения и сообщения об ошибках

Выбранный диапазон

Имя файла D:\Музыка\Grand Funk - Closer To Home (1970) APE\Grand Funk Railroad - Closer To Home (CDP 7 48429 21).wav

Пиковый уровень 91.7 %
Качество диапазона 99.9 %
CRC копии 9D7699A1
Копирование... OK

Ошибок не произошло

AccurateRip: сводка

Трек 1 точное извлечение (доверие 8) [EBB3A530]
Трек 2 точное извлечение (доверие 8) [47B37E38]
Трек 3 точное извлечение (доверие 8) [26231D2A]
Трек 4 точное извлечение (доверие 8) [37E4434E]
Трек 5 точное извлечение (доверие 8) [62EE1717]
Трек 6 точное извлечение (доверие 8) [6CF5565F]
Трек 7 точное извлечение (доверие 8) [BD2A6FBC]
Трек 8 точность не определена (достоверность 8) [E9C393D9], AccurateRip вернул [623D8A6B]

7 трек(и) скопированы точно
1 трек(и) не удалось проверить на точность

Некоторые треки не прошли проверку на точность

Конец отчёта
Страна-производитель диска: Japan
Лейбл: Capirol Records
Номер по каталогу: TOCP-3181
Год издания: 1995
Тип рипа: image+.cue
Продолжительность: 40:50
Источник: netlab.e2k.ru [kokiku]
1. Country Road (4:23)
2. All You've Got Is Money (5:16)
3. Comfort Me (6:48)
4. Feelin' Alright (4:28)
5. I Want Freedom (6:19)
6. I Can Feel Him In The Morning (7:15)
7. Gimme Shelter (6:20)
Don Brewer: Drums, Vocals
Mark Farner: Guitar, Keyboards, Vocals
Mel Schacher: Bass
PERFORMER "Grand Funk Railroad"
TITLE "Survival"
FILE "Survival.flac" WAVE
TRACK 01 AUDIO
TITLE "Country Road"
INDEX 01 00:00:00
TRACK 02 AUDIO
TITLE "All You've Got Is Money"
REM DATE 1971
INDEX 01 04:23:02
TRACK 03 AUDIO
TITLE "Comfort Me"
INDEX 00 09:37:32
INDEX 01 09:39:20
TRACK 04 AUDIO
TITLE "Feelin' Alright"
INDEX 00 16:24:30
INDEX 01 16:27:15
TRACK 05 AUDIO
TITLE "I Want Freedom"
INDEX 00 20:53:25
INDEX 01 20:55:50
TRACK 06 AUDIO
TITLE "I Can Feel Him In The Morning"
INDEX 01 27:14:50
TRACK 07 AUDIO
TITLE "Gimme Shelter"
INDEX 00 34:27:50
INDEX 01 34:30:05
EAC extraction logfile from 19. December 2007, 15:50 for CD
Grand Funk Railroad / Survival

Used drive : Optiarc DVD RW AD-7173A Adapter: 1 ID: 1
Read mode : Secure with NO C2, accurate stream, disable cache
Read offset correction : 48
Overread into Lead-In and Lead-Out : No

Used output format : Internal WAV Routines
44.100 Hz; 16 Bit; Stereo

Other options :
Fill up missing offset samples with silence : Yes
Delete leading and trailing silent blocks : No
Installed external ASPI interface

Range status and errors
Selected range
Filename C:\CDImage.wav

Peak level 100.0 %
Range quality 99.9 %
CRC 17E4E292
Copy OK

No errors occured

End of status report
Страна-производитель диска: Jaoan
Лейбл: Capirol Records
Номер по каталогу: TOCP-3182
Год издания: 1995
Тип рипа: image+.cue
Продолжительность: 35:57
Источник: http://рутраскер [xfiles]
1. Foot Stompin' Music (3:48)
2. People, Let's Stop The War (5:12)
3. Upsetter (4:19)
4. I Come Tumblin' (5:48)
5. Save The Land (4:13)
6. No Lies (3:58)
7. Loneliness (8:39)
Don Brewer: Drums, Percussion, Vocals
Mark Farner: Guitar, Organ, Harmonica, Vocals
Mel Schacher: Bass
REM GENRE Hard Rock
REM DATE 1971
REM DISCID 43086C07
REM COMMENT ExactAudioCopy v0.99pb5
PERFORMER "Grand Funk Railroad"
TITLE "E. Pluribus Funk"
FILE "E. Pluribus Funk.flac" WAVE
TRACK 01 AUDIO
TITLE "Foot Stompin' Music"
INDEX 01 00:00:00
TRACK 02 AUDIO
TITLE "People Let's Stop The War"
INDEX 00 03:46:57
INDEX 01 03:48:30
TRACK 03 AUDIO
TITLE "Upsetter"
INDEX 00 08:59:25
INDEX 01 09:00:20
TRACK 04 AUDIO
TITLE "I Come Tumblin'"
INDEX 01 13:19:05
TRACK 05 AUDIO
TITLE "Save The Land"
INDEX 00 19:05:52
INDEX 01 19:06:72
TRACK 06 AUDIO
TITLE "No Lies"
INDEX 00 23:19:27
INDEX 01 23:20:17
TRACK 07 AUDIO
TITLE "Loneliness"
INDEX 00 27:15:70
INDEX 01 27:17:72
Exact Audio Copy V0.99 prebeta 5 from 4. May 2009

Отчёт EAC об извлечении, выполненном 20. мая 2009, 19:06

Grand Funk Railroad / E. Pluribus Funk

Дисковод: ASUS DRW-20B1LT Adapter: 3 ID: 0

Режим чтения : Достоверность
Использование точного потока : Да
Отключение кэша аудио : Да
Использование указателей C2 : Нет

Коррекция смещения при чтении : 6
Способность читать области Lead-in и Lead-out : Нет
Заполнение пропущенных сэмплов тишиной : Да
Удаление блоков с тишиной в начале и конце : Нет
При вычислениях CRC использовались нулевые сэмплы : Да
Интерфейс : Установленный внешний ASPI-интерфейс

Выходной формат : Внутренние WAV-операции
Формат сэмплов : 44.100 Гц; 16 бит; стерео

TOC извлечённого CD

Трек | Старт | Длительность | Начальный сектор | Конечный сектор
---------------------------------------------------------------------
1 | 0:00.00 | 3:48.30 | 0 | 17129
2 | 3:48.30 | 5:11.65 | 17130 | 40519
3 | 9:00.20 | 4:18.60 | 40520 | 59929
4 | 13:19.05 | 5:47.67 | 59930 | 86021
5 | 19:06.72 | 4:13.20 | 86022 | 105016
6 | 23:20.17 | 3:57.55 | 105017 | 122846
7 | 27:17.72 | 8:38.73 | 122847 | 161769

Характеристики диапазона извлечения и сообщения об ошибках

Выбранный диапазон

Имя файла E:\Audio lossless\Grand Funk Railroad\Grand Funk Railroad - 1971 - E. Pluribus Funk [Japan TOCP-3182]\Grand Funk Railroad - E. Pluribus Funk [Japan TOCP-3182].wav

Пиковый уровень 100.0 %
Качество диапазона 100.0 %
CRC копии 9003304D
Копирование... OK

Ошибок не произошло

AccurateRip: сводка

Трек 1 точность не определена (достоверность 1) [D0A2D721], AccurateRip вернул [D75C7C0E]
Трек 2 точность не определена (достоверность 1) [DD8892D6], AccurateRip вернул [DAA20122]
Трек 3 точность не определена (достоверность 1) [3344B4A2], AccurateRip вернул [E11F89C9]
Трек 4 точность не определена (достоверность 1) [23A71E17], AccurateRip вернул [EF2537AF]
Трек 5 точность не определена (достоверность 1) [7353C9C6], AccurateRip вернул [A43885D2]
Трек 6 точность не определена (достоверность 1) [D48FF973], AccurateRip вернул [82FBB4A7]
Трек 7 точность не определена (достоверность 1) [E4A48B75], AccurateRip вернул [46984637]

Ни один трек не прошёл проверки на точность
В вашей базе может быть иной вариант штамповки диска

Конец отчёта
Страна-производитель диска: Japan
Лейбл: Capirol Records
Номер по каталогу: TOCP-6350
Год издания: 1990
Тип рипа: image+.cue
Продолжительность: 41:28
Источник: http://рутраскер [sinicinal]
1. Flight Of The Phoenix (3:40)
2. Trying To Get Away (4:13)
3. Someone (4:05)
4. She Got To Move Me (4:50)
5. Rain Keeps Fallin' (3:27)
6. I Just Gotta Know (3:55)
7. So You Won't Have To Die (3:24)
8. Freedom Is For Children (6:10)
9. Gotta Find Me A Better Day (4:11)
10. Rock & Roll Soul (3:32)
Don Brewer: Drums, Congas, Percussion, Vocals
Mark Farner: Guitar, Organ, Harmonica, Vocals
Mel Schacher: Bass
Craig Frost: Organ, Clavinet, Harpsichord, Piano
Doug Kershaw: Violin
PERFORMER "Grand Funk Railroad"
TITLE "Phoenix"
FILE "Phoenix.flac" WAVE
TRACK 01 AUDIO
TITLE "Flight Of The Phoenix"
PERFORMER "Grand Funk Railroad"
INDEX 01 00:00:00
TRACK 02 AUDIO
TITLE "Tryin' To Get Away"
PERFORMER "Grand Funk Railroad"
INDEX 00 03:38:00
INDEX 01 03:40:32
TRACK 03 AUDIO
TITLE "Someone"
PERFORMER "Grand Funk Railroad"
INDEX 00 07:51:72
INDEX 01 07:53:32
TRACK 04 AUDIO
TITLE "She Got To Move Me"
PERFORMER "Grand Funk Railroad"
INDEX 00 11:56:67
INDEX 01 11:58:57
TRACK 05 AUDIO
TITLE "Rain Keeps Fallin'"
PERFORMER "Grand Funk Railroad"
INDEX 00 16:47:70
INDEX 01 16:48:45
TRACK 06 AUDIO
TITLE "I Just Gotta Know"
PERFORMER "Grand Funk Railroad"
INDEX 00 20:13:32
INDEX 01 20:16:07
TRACK 07 AUDIO
TITLE "So You Won't Have To Die"
PERFORMER "Grand Funk Railroad"
INDEX 00 24:07:07
INDEX 01 24:10:70
TRACK 08 AUDIO
TITLE "Freedom Is For Children"
PERFORMER "Grand Funk Railroad"
INDEX 00 27:31:37
INDEX 01 27:34:45
TRACK 09 AUDIO
TITLE "Gotta Find Me A Better Day"
PERFORMER "Grand Funk Railroad"
INDEX 00 33:41:35
INDEX 01 33:44:70
TRACK 10 AUDIO
TITLE "Rock & Roll Soul"
PERFORMER "Grand Funk Railroad"
INDEX 00 37:55:00
INDEX 01 37:56:10
Exact Audio Copy V0.99 prebeta 2 from 28. July 2007

Отчёт EAC об извлечении, выполненном 18. апреля 2008, 21:32

Grand Funk Railroad / Phoenix

Дисковод: TEAC DV-W58G-A Adapter: 0 ID: 0

Режим чтения : Достоверность
Использование точного потока : Да
Отключение кэша аудио : Да
Использование указателей C2 : Нет

Коррекция смещения при чтении : 12
Способность читать области Lead-in и Lead-out : Нет
Заполнение пропущенных сэмплов тишиной : Да
Удаление блоков с тишиной в начале и конце : Нет
При вычислениях CRC использовались нулевые сэмплы : Да
Интерфейс : Установленный внешний ASPI-интерфейс

Выходной формат : Внутренние WAV-операции
Формат сэмплов : 44.100 Гц; 16 бит; стерео

TOC извлечённого CD

Трек | Старт | Длительность | Начальный сектор | Конечный сектор
---------------------------------------------------------------------
1 | 0:00.00 | 3:40.32 | 0 | 16531
2 | 3:40.32 | 4:13.00 | 16532 | 35506
3 | 7:53.32 | 4:05.25 | 35507 | 53906
4 | 11:58.57 | 4:49.63 | 53907 | 75644
5 | 16:48.45 | 3:27.37 | 75645 | 91206
6 | 20:16.07 | 3:54.63 | 91207 | 108819
7 | 24:10.70 | 3:23.50 | 108820 | 124094
8 | 27:34.45 | 6:10.25 | 124095 | 151869
9 | 33:44.70 | 4:11.15 | 151870 | 170709
10 | 37:56.10 | 3:32.22 | 170710 | 186631

Характеристики диапазона извлечения и сообщения об ошибках

Выбранный диапазон

Имя файла D:\EAC Obraz\Grand Funk Railroad - Phoenix.wav

Пиковый уровень 100.0 %
Качество диапазона 100.0 %
CRC копии B12C1167
Копирование... OK

Ошибок не произошло

Конец отчёта
Страна-производитель диска: Japan
Лейбл: Capirol Records
Номер по каталогу: TOCP-3183
Год издания: 1995
Тип рипа: image+.cue
Продолжительность: 40:20
Источник: http://рутраскер [sinicinal]
1. We're An American Band (3:28)
2. Stop Lookin' Back (4:55)
3. Creepin' (7:05)
4. Black Licorice (4:47)
5. The Railroad (6:13)
6. Ain't Got Nobody (4:28)
7. Walk Like A Man (4:08)
8. Loneliest Rider (5:15)
Don Brewer: Drums, Percussion, Vocals
Mark Farner: Guitar, Acoustic Guitar, Electric Piano, Conga, Vocals
Mel Schacher: Bass
Craig Frost: Organ, Clavinet, Moog, Electric Piano
REM GENRE Hard Rock
REM DATE 1973
PERFORMER "Grand Funk Railroad"
TITLE "We're An American Band"
FILE "We're An American Band.flac" WAVE
TRACK 01 AUDIO
TITLE "We're An American Band"
INDEX 01 00:00:00
TRACK 02 AUDIO
TITLE "Stop Lookin' Back"
INDEX 00 03:26:30
INDEX 01 03:28:10
TRACK 03 AUDIO
TITLE "Creepin'"
INDEX 00 08:19:17
INDEX 01 08:22:57
TRACK 04 AUDIO
TITLE "Black Licorice"
INDEX 00 15:23:35
INDEX 01 15:27:30
TRACK 05 AUDIO
TITLE "The Railroad"
INDEX 00 20:11:00
INDEX 01 20:14:50
TRACK 06 AUDIO
TITLE "Ain't Got Nobody"
INDEX 01 26:27:27
TRACK 07 AUDIO
TITLE "Walk Like A Man"
INDEX 00 30:50:37
INDEX 01 30:55:52
TRACK 08 AUDIO
TITLE "Loneliest Rider"
INDEX 00 34:59:55
INDEX 01 35:03:17
Exact Audio Copy V0.99 prebeta 2 from 28. July 2007

Отчёт EAC об извлечении, выполненном 18. апреля 2008, 22:52

Grand Funk / We're An American Band

Дисковод: TEAC DV-W58G-A Adapter: 0 ID: 0

Режим чтения : Достоверность
Использование точного потока : Да
Отключение кэша аудио : Да
Использование указателей C2 : Нет

Коррекция смещения при чтении : 12
Способность читать области Lead-in и Lead-out : Нет
Заполнение пропущенных сэмплов тишиной : Да
Удаление блоков с тишиной в начале и конце : Нет
При вычислениях CRC использовались нулевые сэмплы : Да
Интерфейс : Установленный внешний ASPI-интерфейс

Выходной формат : Внутренние WAV-операции
Формат сэмплов : 44.100 Гц; 16 бит; стерео

TOC извлечённого CD

Трек | Старт | Длительность | Начальный сектор | Конечный сектор
---------------------------------------------------------------------
1 | 0:00.00 | 3:28.10 | 0 | 15609
2 | 3:28.10 | 4:54.47 | 15610 | 37706
3 | 8:22.57 | 7:04.48 | 37707 | 69554
4 | 15:27.30 | 4:47.20 | 69555 | 91099
5 | 20:14.50 | 6:12.52 | 91100 | 119051
6 | 26:27.27 | 4:28.25 | 119052 | 139176
7 | 30:55.52 | 4:07.40 | 139177 | 157741
8 | 35:03.17 | 5:14.68 | 157742 | 181359

Характеристики диапазона извлечения и сообщения об ошибках

Выбранный диапазон

Имя файла D:\EAC Obraz\Grand Funk - We're An American Band.wav

Пиковый уровень 100.0 %
Качество диапазона 100.0 %
CRC копии AD6A93CD
Копирование... OK

Ошибок не произошло

Конец отчёта
Страна-производитель диска: Japan
Лейбл: Capirol Records
Номер по каталогу: TOCP-6349
Год издания: 1990
Тип рипа: image+.cue
Продолжительность: 34:02
Источник: http://рутраскер [kurok39]
1. Shinin' On (5:59)
2. To Get Back In (3:56)
3. The Loco-Motion (2:47)
4. Carry Me Through (5:35)
5. Please Me (3:38)
6. Mr. Pretty Boy (3:08)
7. Gettin' Over You (3:59)
8. Little Johnny Hooker (5:00)
Don Brewer: Drums, Percussion, Vocals
Mark Farner: Guitar, Guitaron, Harmonica, Organ, Vocals
Mel Schacher: Bass
Craig Frost: Organ, Clavinet, Moog, Piano, Mellotrone, Vocals
Todd Rundgren: Guitar
REM GENRE Hard Rock
REM DATE 1974
REM DISCID 6C07FA08
REM COMMENT ExactAudioCopy v0.99pb5
PERFORMER "Grand Funk Railroad"
TITLE "Shinin' On"
FILE "Shinin' On.flac" WAVE
TRACK 01 AUDIO
TITLE "Shinin' On"
INDEX 01 00:00:00
TRACK 02 AUDIO
TITLE "To Get Back In"
INDEX 00 05:58:22
INDEX 01 05:59:32
TRACK 03 AUDIO
TITLE "The Loco-Motion"
INDEX 00 09:54:37
INDEX 01 09:55:67
TRACK 04 AUDIO
TITLE "Carry Me Through"
INDEX 01 12:42:35
TRACK 05 AUDIO
TITLE "Please Me"
INDEX 00 18:15:57
INDEX 01 18:17:32
TRACK 06 AUDIO
TITLE "Mr. Pretty Boy"
INDEX 00 21:54:52
INDEX 01 21:55:25
TRACK 07 AUDIO
TITLE "Gettin' Over You"
INDEX 00 25:02:15
INDEX 01 25:03:47
TRACK 08 AUDIO
TITLE "Little Johnny Hooker"
INDEX 00 29:02:02
INDEX 01 29:02:57
Exact Audio Copy V0.99 prebeta 5 from 4. May 2009

Отчёт EAC об извлечении, выполненном 9. октября 2009, 14:13

Grand Funk / Shinin' On

Дисковод: HL-DT-STDVDRAM GSA-T20N Adapter: 1 ID: 0

Режим чтения : Достоверность
Использование точного потока : Да
Отключение кэша аудио : Да
Использование указателей C2 : Нет

Коррекция смещения при чтении : 667
Способность читать области Lead-in и Lead-out : Нет
Заполнение пропущенных сэмплов тишиной : Да
Удаление блоков с тишиной в начале и конце : Нет
При вычислениях CRC использовались нулевые сэмплы : Да
Интерфейс : Встроенный Win32-интерфейс для Win NT/2000

Выходной формат : Пользовательский кодировщик
Выбранный битрейт : 768 kBit/s
Качество : Высокий
Добавление ID3-тэга : Нет
Утилита сжатия : C:\Program Files\Exact Audio Copy\FLAC\FLAC.EXE
Дополнительные параметры : -8 -V %s

TOC извлечённого CD

Трек | Старт | Длительность | Начальный сектор | Конечный сектор
---------------------------------------------------------------------
1 | 0:00.00 | 5:59.32 | 0 | 26956
2 | 5:59.32 | 3:56.35 | 26957 | 44691
3 | 9:55.67 | 2:46.43 | 44692 | 57184
4 | 12:42.35 | 5:34.72 | 57185 | 82306
5 | 18:17.32 | 3:37.68 | 82307 | 98649
6 | 21:55.25 | 3:08.22 | 98650 | 112771
7 | 25:03.47 | 3:59.10 | 112772 | 130706
8 | 29:02.57 | 4:59.55 | 130707 | 153186

Характеристики диапазона извлечения и сообщения об ошибках

Выбранный диапазон

Имя файла D:\Azureus Downloads\Grand Funk-Shinin'On(The Japanese Edition 1990)\Grand Funk - Shinin' On.wav

Пиковый уровень 100.0 %
Качество диапазона 100.0 %
CRC теста 576B620F
CRC копии 576B620F
Копирование... OK

Ошибок не произошло

AccurateRip: сводка

Трек 1 нет в базе данных
Трек 2 нет в базе данных
Трек 3 нет в базе данных
Трек 4 нет в базе данных
Трек 5 нет в базе данных
Трек 6 нет в базе данных
Трек 7 нет в базе данных
Трек 8 нет в базе данных

Ни одного трека нет в базе AccurateRip

Конец отчёта
Страна-производитель диска: Japan
Лейбл: Capirol Records
Номер по каталогу: TOCP-67010
Год издания: 2003
Тип рипа: image+.cue
Продолжительность: 42:39
Источник: http://рутраскер [Manstr]
1. Responsibility (3:51)
2. Runnin' (4:21)
3. Life (5:00)
4. Look At Granny Run Run (2:31)
5. Memories (3:32)
6. All The Girls In The World Beware (3:30)
7. Wild (2:53)
8. Good & Evil (7:33)
9. Bad Time (2:55)
10 .Some Kind Of Wonderful (6:31)
Don Brewer: Drums, Percussion, Vocals
Mark Farner: Guitar, Acoustic Guitar, Percussion, Vocals
Mel Schacher: Bass
Craig Frost: Organ, Keyboards, Percussion, Vocals
REM GENRE Hard Rock
REM DATE 1974
REM DISCID 8C09FE0A
REM COMMENT ExactAudioCopy v0.95b4
PERFORMER "Grand Funk Railroad"
TITLE "All The Girls In The World Beware!!!"
FILE "All The Girls In The World Beware!!!.flac" WAVE
TRACK 01 AUDIO
TITLE "Responsibility"
INDEX 01 00:00:00
TRACK 02 AUDIO
TITLE "Runnin'"
INDEX 00 03:50:25
INDEX 01 03:51:07
TRACK 03 AUDIO
TITLE "Life"
INDEX 00 08:11:30
INDEX 01 08:12:32
TRACK 04 AUDIO
TITLE "Look At Granny Run Run"
INDEX 00 13:11:30
INDEX 01 13:12:37
TRACK 05 AUDIO
TITLE "Memories"
INDEX 00 15:42:25
INDEX 01 15:43:30
TRACK 06 AUDIO
TITLE "All The Girls In The World Beware"
INDEX 00 19:14:15
INDEX 01 19:15:67
TRACK 07 AUDIO
TITLE "Wild"
INDEX 00 22:44:67
INDEX 01 22:45:67
TRACK 08 AUDIO
TITLE "Good & Evil"
INDEX 00 25:39:02
INDEX 01 25:39:25
TRACK 09 AUDIO
TITLE "Bad Time"
INDEX 00 33:12:30
INDEX 01 33:12:55
TRACK 10 AUDIO
TITLE "Some Kind Of Wonderful"
INDEX 00 36:07:30
INDEX 01 36:08:07
Отчёт EAC об извлечении, выполненном 3. апреля 2010, 15:20 для диска:
Grand Funk / All The Girls In The World Beware!!!

Дисковод: PIONEER DVD-RW DVR-218L Adapter: 2 ID: 0
Режим чтения: Достоверный (C2: нет, Точный поток: да, Отключение кэша: да)
Коррекция смещения при чтении: 6
Способность читать области Lead-in и Lead-out : Нет

Выходной формат: Внутренние WAV-операции
44.100 Гц; 16 бит; стерео

Другие параметры:
Заполнение пропущенных сэмплов тишиной : Да
Удаление блоков с тишиной в начале и конце : Нет
Установленный внешний ASPI-интерфейс

Характеристики диапазона извлечения и сообщения об ошибках
Выбранный диапазон
Имя файла D:\Мои раздачи\Grand Funk\1974 All The Girls In The World Beware\ape\Grand Funk - All The Girls In The World Beware!!!.wav

Пиковый уровень 98.8 %
Качество диапазона 100.0 %
CRC 234BD1AE
Копирование... OK

Ошибок не произошло

Конец отчёта
Страна-производитель диска: Canada
Лейбл: Capirol Records
Номер по каталогу: ST CD 11482
Год издания: 1999
Тип рипа: image+.cue
Продолжительность: 47:48
Источник: http://рутраскер [kurok79]
1. Born To Die (5:32)
2. Dues (5:32)
3. Sally (3:17)
4. I Fell For Your Love (4:10)
5. Talk To The People (5:33)
6. Take Me (5:05)
7. Genevieve (6:12)
8. Love Is Dyin' (4:14)
9. Politician (3:55)
10. Good Things (4:20)
Don Brewer: Drums, Percussion, Vocals
Mark Farner: Guitar, Vocals
Mel Schacher: Bass
Craig Frost: Keyboards, Vocals
Jimmie Hall: Saxophone, Harmonica
Donna Hall: Background Vocals
REM GENRE Hard Rock
REM DATE 1976
REM DISCID 740B340A
REM COMMENT ExactAudioCopy v0.99pb5
PERFORMER "Grand Funk Railroad"
TITLE "Born To Die"
FILE "Born To Die.flac" WAVE
TRACK 01 AUDIO
TITLE "Born To Die"
INDEX 01 00:00:00
TRACK 02 AUDIO
TITLE "Dues"
INDEX 00 05:29:54
INDEX 01 05:31:54
TRACK 03 AUDIO
TITLE "Sally"
INDEX 00 11:02:02
INDEX 01 11:04:02
TRACK 04 AUDIO
TITLE "I Fell For Your Love"
INDEX 00 14:18:43
INDEX 01 14:20:42
TRACK 05 AUDIO
TITLE "Talk To The People"
INDEX 00 18:28:26
INDEX 01 18:30:26
TRACK 06 AUDIO
TITLE "Take Me"
INDEX 00 24:00:66
INDEX 01 24:02:66
TRACK 07 AUDIO
TITLE "Genevieve"
INDEX 00 29:05:31
INDEX 01 29:07:30
TRACK 08 AUDIO
TITLE "Love Is Dyin'"
INDEX 01 35:19:01
TRACK 09 AUDIO
TITLE "Politican"
INDEX 00 39:31:06
INDEX 01 39:33:05
TRACK 10 AUDIO
TITLE "Good Things"
INDEX 00 43:26:38
INDEX 01 43:28:38
Exact Audio Copy V0.99 prebeta 5 from 4. May 2009

Отчёт EAC об извлечении, выполненном 29. апреля 2010, 19:45

Grand Funk Railroad / Born To Die

Дисковод: HL-DT-STDVDRAM GSA-T20N Adapter: 1 ID: 0

Режим чтения : Достоверность
Использование точного потока : Да
Отключение кэша аудио : Да
Использование указателей C2 : Нет

Коррекция смещения при чтении : 667
Способность читать области Lead-in и Lead-out : Нет
Заполнение пропущенных сэмплов тишиной : Да
Удаление блоков с тишиной в начале и конце : Нет
При вычислениях CRC использовались нулевые сэмплы : Да
Интерфейс : Встроенный Win32-интерфейс для Win NT/2000

Выходной формат : Пользовательский кодировщик
Выбранный битрейт : 768 kBit/s
Качество : Высокий
Добавление ID3-тэга : Нет
Утилита сжатия : C:\Program Files\Exact Audio Copy\FLAC\FLAC.EXE
Дополнительные параметры : -8 -V %s

TOC извлечённого CD

Трек | Старт | Длительность | Начальный сектор | Конечный сектор
---------------------------------------------------------------------
1 | 0:00.00 | 5:31.54 | 0 | 24878
2 | 5:31.54 | 5:32.23 | 24879 | 49801
3 | 11:04.02 | 3:16.40 | 49802 | 64541
4 | 14:20.42 | 4:09.59 | 64542 | 83275
5 | 18:30.26 | 5:32.40 | 83276 | 108215
6 | 24:02.66 | 5:04.39 | 108216 | 131054
7 | 29:07.30 | 6:11.46 | 131055 | 158925
8 | 35:19.01 | 4:14.04 | 158926 | 177979
9 | 39:33.05 | 3:55.33 | 177980 | 195637
10 | 43:28.38 | 4:19.67 | 195638 | 215129

Характеристики диапазона извлечения и сообщения об ошибках

Выбранный диапазон

Имя файла D:\uTorrent.compl\Grand Funk Railroad - Burn To Die 1975 ( Capitol STCD 11482 )\Grand Funk Railroad - Born To Die.wav

Пиковый уровень 98.8 %
Качество диапазона 99.9 %
CRC теста C5E4C38A
CRC копии C5E4C38A
Копирование... OK

Ошибок не произошло

AccurateRip: сводка

Трек 1 нет в базе данных
Трек 2 нет в базе данных
Трек 3 нет в базе данных
Трек 4 нет в базе данных
Трек 5 нет в базе данных
Трек 6 нет в базе данных
Трек 7 нет в базе данных
Трек 8 нет в базе данных
Трек 9 нет в базе данных
Трек 10 нет в базе данных

Ни одного трека нет в базе AccurateRip

Конец отчёта
Страна-производитель диска: USA
Лейбл: Hip-O Records
Номер по каталогу: HIPD-40144
Год издания: 1999
Тип рипа: image+.cue
Продолжительность: 51:16
Источник: http://рутраскер [Hammer.igor]
1. Just Couldn't Wait (3:29)
2. Can You Do It (3:17)
3. Pass It Around (5:00)
4. Don't Let 'Em Take Your Gun (3:40)
5. Miss My Baby (7:20)
6. Big Buns (0:30)
7. Out To Get You (4:44)
8. Crossfire (4:20)
9. 1976 (4:20)
10. Release Your Love (3:52)
11. Goin' For The Pastor (5:24)
12. Rubberneck [CD bonus track] (5:19)
Don Brewer: Drums, Percussion, Vocals
Mark Farner: Guitar, Piano, Vocals
Mel Schacher: Bass, Vocals
Craig Frost: Keyboards, Vocals
Frank Zappa: Guitar
REM GENRE Hard Rock
REM DATE 1976
REM DISCID A30C030C
REM COMMENT ExactAudioCopy v0.99pb3
PERFORMER "Grand Funk Railroad"
TITLE "Good Singin' Good Playin'"
FILE "Good Singin' Good Playin'.flac" WAVE
TRACK 01 AUDIO
TITLE "Just Couldn't Wait"
FLAGS DCP
INDEX 01 00:00:00
TRACK 02 AUDIO
TITLE "Can You Do It"
FLAGS DCP
INDEX 00 03:25:55
INDEX 01 03:28:70
TRACK 03 AUDIO
TITLE "Pass It Around"
FLAGS DCP
INDEX 00 06:42:70
INDEX 01 06:46:10
TRACK 04 AUDIO
TITLE "Don't Let 'Em Take Your Gun"
FLAGS DCP
INDEX 00 11:42:35
INDEX 01 11:45:50
TRACK 05 AUDIO
TITLE "Miss My Baby"
FLAGS DCP
INDEX 00 15:22:45
INDEX 01 15:25:60
TRACK 06 AUDIO
TITLE "Big Buns"
FLAGS DCP
INDEX 00 22:42:70
INDEX 01 22:46:10
TRACK 07 AUDIO
TITLE "Out To Get You"
FLAGS DCP
INDEX 00 23:13:10
INDEX 01 23:16:25
TRACK 08 AUDIO
TITLE "Crossfire"
FLAGS DCP
INDEX 00 27:57:40
INDEX 01 28:00:55
TRACK 09 AUDIO
TITLE "1976"
FLAGS DCP
INDEX 00 32:17:35
INDEX 01 32:20:50
TRACK 10 AUDIO
TITLE "Release Your Love"
FLAGS DCP
INDEX 00 36:37:50
INDEX 01 36:40:65
TRACK 11 AUDIO
TITLE "Goin' For The Pastor"
FLAGS DCP
INDEX 00 40:29:55
INDEX 01 40:32:70
TRACK 12 AUDIO
TITLE "Rubberneck"
FLAGS DCP
INDEX 00 45:53:60
INDEX 01 45:57:00
Exact Audio Copy V0.99 prebeta 3 from 28. July 2007

Отчёт EAC об извлечении, выполненном 5. декабря 2007, 20:03

Grand Funk Railroad / Good Singing Good Playing

Дисковод: TOSHIBA DVD-ROM SD-R1312 Adapter: 1 ID: 0

Режим чтения : Достоверность
Использование точного потока : Да
Отключение кэша аудио : Да
Использование указателей C2 : Нет

Коррекция смещения при чтении : 116
Способность читать области Lead-in и Lead-out : Нет
Заполнение пропущенных сэмплов тишиной : Да
Удаление блоков с тишиной в начале и конце : Нет
При вычислениях CRC использовались нулевые сэмплы : Нет
Интерфейс : Встроенный Win32-интерфейс для Win NT/2000

Выходной формат : Monkey's Audio (без потерь)
Выбранный битрейт : High Lossless Compression
Качество : Высокий
Добавление ID3-тэга : Да
Утилита сжатия : C:\Program Files\Monkey's Audio\MAC.exe

TOC извлечённого CD

Трек | Старт | Длительность | Начальный сектор | Конечный сектор
---------------------------------------------------------------------
1 | 0:00.00 | 3:28.70 | 0 | 15669
2 | 3:28.70 | 3:17.15 | 15670 | 30459
3 | 6:46.10 | 4:59.40 | 30460 | 52924
4 | 11:45.50 | 3:40.10 | 52925 | 69434
5 | 15:25.60 | 7:20.25 | 69435 | 102459
6 | 22:46.10 | 0:30.15 | 102460 | 104724
7 | 23:16.25 | 4:44.30 | 104725 | 126054
8 | 28:00.55 | 4:19.70 | 126055 | 145549
9 | 32:20.50 | 4:20.15 | 145550 | 165064
10 | 36:40.65 | 3:52.05 | 165065 | 182469
11 | 40:32.70 | 5:24.05 | 182470 | 206774
12 | 45:57.00 | 5:18.40 | 206775 | 230664

Характеристики диапазона извлечения и сообщения об ошибках

Выбранный диапазон

Имя файла C:\My Music\Новая папка\Grand Funk Railroad - Good Singing Good Playing.wav

Пиковый уровень 100.0 %
Качество диапазона 100.0 %
CRC копии 25C5A1DF
Копирование... OK

Ошибок не произошло

Конец отчёта
Страна-производитель диска: USA
Лейбл: Wounded Bird Records
Номер по каталогу: WOU 3625
Год издания: 2008
Тип рипа: image+.cue
Продолжительность: 36:25
Источник: http://рутраскер [kurok79]
1. Good Times (2:06)
2. Queen Bee (3:13)
3. Testify (2:58)
4. Can't Be With You Tonight (3:29)
5. No Reason Why (4:48)
6. We Gotta Get Out Of This Place (3:56)
7. Y.O.U. (2:53)
8. Stuck In The Middle (3:10)
9. Greed Of Man (5:01)
10. Wait For Me (4:52)
Don Brewer: Drums, Vocals
Mark Farner: Guitar, Piano, Vocals
Dennis Bellinger: Bass, Vocals
Lance Duncan Ong: Synthesizers, Organ
REM GENRE Hard Rock
REM DATE 1981
REM DISCID 8608890A
REM COMMENT ExactAudioCopy v0.99pb5
PERFORMER "Grand Funk Railroad"
TITLE "Grand Funk Lives"
FILE "Grand Funk Lives.flac" WAVE
TRACK 01 AUDIO
TITLE "Good Times"
INDEX 01 00:00:00
TRACK 02 AUDIO
TITLE "Queen Bee"
INDEX 01 02:05:43
TRACK 03 AUDIO
TITLE "Testify"
INDEX 01 05:18:45
TRACK 04 AUDIO
TITLE "Can't Be With You Tonight"
INDEX 01 08:16:60
TRACK 05 AUDIO
TITLE "No Reason Why"
INDEX 01 11:46:18
TRACK 06 AUDIO
TITLE "We Gotta Get Out Of This Place"
INDEX 01 16:33:68
TRACK 07 AUDIO
TITLE "Y.O.U."
INDEX 01 20:29:43
TRACK 08 AUDIO
TITLE "Stuck In The Middle"
INDEX 01 23:22:50
TRACK 09 AUDIO
TITLE "Greed Of Man"
INDEX 01 26:32:28
TRACK 10 AUDIO
TITLE "Wait For Me"
INDEX 01 31:33:08
Exact Audio Copy V0.99 prebeta 5 from 4. May 2009

Отчёт EAC об извлечении, выполненном 10. мая 2010, 12:24

Grand Funk Railroad / Grand Funk Lives

Дисковод: HL-DT-STDVDRAM GSA-T20N Adapter: 1 ID: 0

Режим чтения : Достоверность
Использование точного потока : Да
Отключение кэша аудио : Да
Использование указателей C2 : Нет

Коррекция смещения при чтении : 667
Способность читать области Lead-in и Lead-out : Нет
Заполнение пропущенных сэмплов тишиной : Да
Удаление блоков с тишиной в начале и конце : Нет
При вычислениях CRC использовались нулевые сэмплы : Да
Интерфейс : Встроенный Win32-интерфейс для Win NT/2000

Выходной формат : Пользовательский кодировщик
Выбранный битрейт : 768 kBit/s
Качество : Высокий
Добавление ID3-тэга : Нет
Утилита сжатия : C:\Program Files\Exact Audio Copy\FLAC\FLAC.EXE
Дополнительные параметры : -8 -V %s

TOC извлечённого CD

Трек | Старт | Длительность | Начальный сектор | Конечный сектор
---------------------------------------------------------------------
1 | 0:00.00 | 2:05.43 | 0 | 9417
2 | 2:05.43 | 3:13.02 | 9418 | 23894
3 | 5:18.45 | 2:58.15 | 23895 | 37259
4 | 8:16.60 | 3:29.33 | 37260 | 52967
5 | 11:46.18 | 4:47.50 | 52968 | 74542
6 | 16:33.68 | 3:55.50 | 74543 | 92217
7 | 20:29.43 | 2:53.07 | 92218 | 105199
8 | 23:22.50 | 3:09.53 | 105200 | 119427
9 | 26:32.28 | 5:00.55 | 119428 | 141982
10 | 31:33.08 | 4:52.17 | 141983 | 163899

Характеристики диапазона извлечения и сообщения об ошибках

Выбранный диапазон

Имя файла D:\uTorrent.compl\Grand Funk Railroad - 'Grand Funk Lives' 1981 ( WOU 3625 )\Grand Funk Railroad - Grand Funk Lives.wav

Пиковый уровень 92.2 %
Качество диапазона 99.9 %
CRC теста 3BA06521
CRC копии 3BA06521
Копирование... OK

Ошибок не произошло

AccurateRip: сводка

Трек 1 точное извлечение (доверие 1) [AC7D87AB]
Трек 2 точное извлечение (доверие 1) [3B16B66A]
Трек 3 точное извлечение (доверие 1) [D69C8B23]
Трек 4 точное извлечение (доверие 1) [E17DC3C7]
Трек 5 точное извлечение (доверие 1) [5E0A82A3]
Трек 6 точное извлечение (доверие 1) [64270E93]
Трек 7 точное извлечение (доверие 1) [99D599B4]
Трек 8 точное извлечение (доверие 1) [A22DB260]
Трек 9 точное извлечение (доверие 1) [E08A4C45]
Трек 10 точное извлечение (доверие 1) [196A1806]

Все треки извлечены точно

Конец отчёта
Страна-производитель диска: USA
Лейбл: Warner Bros Records
Номер по каталогу: 5992-23750-2
Год издания: 1999
Тип рипа: image+.cue
Продолжительность: 39:08
Источник: http://рутраскер [kurok79]
1. Rock & Roll American Style (4:28)
2. Nowhere To Run (2:39)
3. Innocent (3:05)
4. Still Waitin' (4:06)
5. Borderline (2:56)
6. El Salvador (4:11)
7. It's A Man's World (4:53)
8. I'm So True (4:11)
9. Don't Lie To Me (4:18)
10. Life In Outer Space (4:21)
Mark Farner: Vocals, Guitars, Keyboards
Don Brewer: Vocals, Drums, Percussion
Dennis Bellinger: Background Vocals, Bass Guitar
REM GENRE Hard Rock
REM DATE 1983
REM DISCID 8A092B0A
REM COMMENT ExactAudioCopy v0.99pb5
PERFORMER "Grand Funk Railroad"
TITLE "What's Funk?"
FILE "What's Funk.flac" WAVE
TRACK 01 AUDIO
TITLE "Rock & Roll American Style"
INDEX 01 00:00:00
TRACK 02 AUDIO
TITLE "Nowhere To Run"
INDEX 00 04:25:44
INDEX 01 04:27:44
TRACK 03 AUDIO
TITLE "Innocent"
INDEX 00 07:04:30
INDEX 01 07:06:30
TRACK 04 AUDIO
TITLE "Still Waitin'"
INDEX 00 10:09:52
INDEX 01 10:11:52
TRACK 05 AUDIO
TITLE "Borderline"
INDEX 00 14:15:27
INDEX 01 14:17:26
TRACK 06 AUDIO
TITLE "El Salvador"
INDEX 00 17:11:58
INDEX 01 17:13:58
TRACK 07 AUDIO
TITLE "It's A Man's World"
INDEX 00 21:23:16
INDEX 01 21:25:16
TRACK 08 AUDIO
TITLE "I'm So True"
INDEX 00 26:16:36
INDEX 01 26:18:35
TRACK 09 AUDIO
TITLE "Don't Lie To Me"
INDEX 00 30:27:50
INDEX 01 30:29:49
TRACK 10 AUDIO
TITLE "Life In Outer Space"
INDEX 00 34:45:17
INDEX 01 34:47:17
Exact Audio Copy V0.99 prebeta 5 from 4. May 2009

Отчёт EAC об извлечении, выполненном 10. мая 2010, 11:45

Grand Funk Railroad / What's Funk

Дисковод: HL-DT-STDVDRAM GSA-T20N Adapter: 1 ID: 0

Режим чтения : Достоверность
Использование точного потока : Да
Отключение кэша аудио : Да
Использование указателей C2 : Нет

Коррекция смещения при чтении : 667
Способность читать области Lead-in и Lead-out : Нет
Заполнение пропущенных сэмплов тишиной : Да
Удаление блоков с тишиной в начале и конце : Нет
При вычислениях CRC использовались нулевые сэмплы : Да
Интерфейс : Встроенный Win32-интерфейс для Win NT/2000

Выходной формат : Пользовательский кодировщик
Выбранный битрейт : 768 kBit/s
Качество : Высокий
Добавление ID3-тэга : Нет
Утилита сжатия : C:\Program Files\Exact Audio Copy\FLAC\FLAC.EXE
Дополнительные параметры : -8 -V %s

TOC извлечённого CD

Трек | Старт | Длительность | Начальный сектор | Конечный сектор
---------------------------------------------------------------------
1 | 0:00.00 | 4:27.44 | 0 | 20068
2 | 4:27.44 | 2:38.61 | 20069 | 31979
3 | 7:06.30 | 3:05.22 | 31980 | 45876
4 | 10:11.52 | 4:05.49 | 45877 | 64300
5 | 14:17.26 | 2:56.32 | 64301 | 77532
6 | 17:13.58 | 4:11.33 | 77533 | 96390
7 | 21:25.16 | 4:53.19 | 96391 | 118384
8 | 26:18.35 | 4:11.14 | 118385 | 137223
9 | 30:29.49 | 4:17.43 | 137224 | 156541
10 | 34:47.17 | 4:20.44 | 156542 | 176085

Характеристики диапазона извлечения и сообщения об ошибках

Выбранный диапазон

Имя файла D:\uTorrent.compl\Grand Funk - 'What's Funk' 1983 ( Warner 5992-23750-2 )\Grand Funk Railroad - What's Funk.wav

Пиковый уровень 98.8 %
Качество диапазона 100.0 %
CRC теста E97DB09A
CRC копии E97DB09A
Копирование... OK

Ошибок не произошло

AccurateRip: сводка

Трек 1 точное извлечение (доверие 1) [78510F07]
Трек 2 точное извлечение (доверие 1) [8D0E8C43]
Трек 3 точное извлечение (доверие 1) [0D2649BF]
Трек 4 точное извлечение (доверие 1) [8FD2B09B]
Трек 5 точное извлечение (доверие 1) [B0996352]
Трек 6 точное извлечение (доверие 1) [C8773AE2]
Трек 7 точное извлечение (доверие 1) [69AC7A62]
Трек 8 точное извлечение (доверие 1) [37CC0E5E]
Трек 9 точное извлечение (доверие 1) [54B22E20]
Трек 10 точное извлечение (доверие 1) [9C8DBFC8]

Все треки извлечены точно

Конец отчёта
Страна-производитель диска: Holland
Лейбл: Capirol Records
Номер по каталогу: 0777 7 91899 2 2
Год издания: 2001
Тип рипа: image+.cue
Продолжительность: 1:16:46
Источник: kat.ph
1. Introduction (2:07)
2. Are You Ready (3:34)
3. Paranoid (7:18)
4. In Need (10:32)
5. Heartbreaker (7:12)
6. Inside Looking Out (12:53)
7. Words Of Wisdom (0:46)
8. Mean Mistreater (4:58)
9. Mark Say's Alright (5:12)
10. T.N.U.C. (11:05)
11. Into The Sun (11:09)
Don Brewer: Drums, Vocals
Mark Farner: Guitar, Keyboards, Vocals
Mel Schacher: Bass
REM GENRE Hard Rock
REM DATE 1970
REM DISCID 9D11FD0B
REM COMMENT ExactAudioCopy v0.99pb4
PERFORMER "Grand Funk Railroad"
TITLE "Live Album"
FILE "Live Album.flac" WAVE
TRACK 01 AUDIO
TITLE "Introduction"
INDEX 01 00:00:00
TRACK 02 AUDIO
TITLE "Are You Ready"
INDEX 01 02:07:35
TRACK 03 AUDIO
TITLE "Paranoid"
INDEX 01 05:41:26
TRACK 04 AUDIO
TITLE "In Need"
INDEX 01 12:59:11
TRACK 05 AUDIO
TITLE "Heartbreaker"
INDEX 01 23:31:15
TRACK 06 AUDIO
TITLE "Inside Looking Out"
INDEX 01 30:43:04
TRACK 07 AUDIO
TITLE "Words Of Wisdom"
INDEX 01 43:35:72
TRACK 08 AUDIO
TITLE "Mean Mistreater"
INDEX 01 44:21:62
TRACK 09 AUDIO
TITLE "Mark Say's Alright"
INDEX 01 49:19:62
TRACK 10 AUDIO
TITLE "T.N.U.C."
INDEX 01 54:31:62
TRACK 11 AUDIO
TITLE "Into The Sun"
INDEX 01 65:37:00
Exact Audio Copy V0.99 prebeta 4 from 23. January 2008

Отчёт EAC об извлечении, выполненном 30. января 2010, 21:23

Grand Funk / Live Album

Дисковод: HL-DT-STDVDRAM GSA-H42L Adapter: 2 ID: 1

Режим чтения : Достоверность
Использование точного потока : Да
Отключение кэша аудио : Да
Использование указателей C2 : Нет

Коррекция смещения при чтении : 667
Способность читать области Lead-in и Lead-out : Нет
Заполнение пропущенных сэмплов тишиной : Да
Удаление блоков с тишиной в начале и конце : Нет
При вычислениях CRC использовались нулевые сэмплы : Да
Интерфейс : Установленный внешний ASPI-интерфейс

Выходной формат : Пользовательский кодировщик
Выбранный битрейт : 1024 kBit/s
Качество : Высокий
Добавление ID3-тэга : Нет
Утилита сжатия : C:\Program Files\Exact Audio Copy\FLAC\FLAC.EXE
Дополнительные параметры : -6 -V -T "ARTIST=%a" -T "TITLE=%t" -T "ALBUM=%g" -T "DATE=%y" -T "TRACKNUMBER=%n" -T "GENRE=%m" -T "COMMENT=%e" %s -o %d

TOC извлечённого CD

Трек | Старт | Длительность | Начальный сектор | Конечный сектор
---------------------------------------------------------------------
1 | 0:00.00 | 2:07.35 | 0 | 9559
2 | 2:07.35 | 3:33.66 | 9560 | 25600
3 | 5:41.26 | 7:17.60 | 25601 | 58435
4 | 12:59.11 | 10:32.04 | 58436 | 105839
5 | 23:31.15 | 7:11.64 | 105840 | 138228
6 | 30:43.04 | 12:52.68 | 138229 | 196196
7 | 43:35.72 | 0:45.65 | 196197 | 199636
8 | 44:21.62 | 4:58.00 | 199637 | 221986
9 | 49:19.62 | 5:12.00 | 221987 | 245386
10 | 54:31.62 | 11:05.13 | 245387 | 295274
11 | 65:37.00 | 11:08.55 | 295275 | 345429

Характеристики диапазона извлечения и сообщения об ошибках

Выбранный диапазон

Имя файла J:\AUDIO\ROCK\GRAND FUNK\1970 _ Live Album\Grand Funk - Live Album.wav

Пиковый уровень 100.0 %
Качество диапазона 99.9 %
CRC копии F162331E
Копирование... OK

Ошибок не произошло

AccurateRip: сводка

Трек 1 нет в базе данных
Трек 2 нет в базе данных
Трек 3 нет в базе данных
Трек 4 нет в базе данных
Трек 5 нет в базе данных
Трек 6 нет в базе данных
Трек 7 нет в базе данных
Трек 8 нет в базе данных
Трек 9 нет в базе данных
Трек 10 нет в базе данных
Трек 11 нет в базе данных

Ни одного трека нет в базе AccurateRip

Конец отчёта
Страна-производитель диска: USA
Лейбл: Capirol Records
Номер по каталогу: CDP 0777 7 48430 2 7
Год издания: 1995
Тип рипа: tracks+.cue
Продолжительность: 1:14:27
Источник: what.cd [jazzyjim]
1. Footstompin' Music (4:15)
2. Rock & Roll Soul (4:02)
3. Closer To Home (7:27)
4. Heartbreaker (7:26)
5. Some Kind Of Wonderful (4:30)
6. Shinin' On (5:33)
7. The Loco-Motion (3:20)
8. Black Licorice (4:53)
9. The Railroad (6:18)
10. We're An American Band (3:26)
11. T.N.U.C. (4:41)
12. Inside Looking Out (12:08)
13. Gimme Shelter (6:28)
Don Brewer: Drums, Percussion, Vocals
Mark Farner: Guitar, Harp, Organ, Vocals
Mel Schacher: Bass, Vocals
Craig Frost: Keyboards, Percussion, Vocals
REM GENRE Unknown
REM DATE 1975
REM DISCID D211730D
REM COMMENT "ExactAudioCopy v1.0b1"
PERFORMER "Grand Funk Railroad"
TITLE "Caught In The Act"
FILE "01. Foot Stompin' Music.flac" WAVE
TRACK 01 AUDIO
TITLE "Foot Stompin' Music"
PERFORMER "Grand Funk Railroad"
INDEX 01 00:00:00
FILE "02. Rock & Roll Soul.flac" WAVE
TRACK 02 AUDIO
TITLE "Rock & Roll Soul"
PERFORMER "Grand Funk Railroad"
INDEX 01 00:00:00
FILE "03. Closer to Home.flac" WAVE
TRACK 03 AUDIO
TITLE "Closer to Home"
PERFORMER "Grand Funk Railroad"
INDEX 01 00:00:00
FILE "04. Heartbreaker.flac" WAVE
TRACK 04 AUDIO
TITLE "Heartbreaker"
PERFORMER "Grand Funk Railroad"
INDEX 01 00:00:00
FILE "05. Some Kind of Wonderful.flac" WAVE
TRACK 05 AUDIO
TITLE "Some Kind of Wonderful"
PERFORMER "Grand Funk Railroad"
INDEX 01 00:00:00
FILE "06. Shinin' On.flac" WAVE
TRACK 06 AUDIO
TITLE "Shinin' On"
PERFORMER "Grand Funk Railroad"
INDEX 01 00:00:00
FILE "07. The Loco-Motion.flac" WAVE
TRACK 07 AUDIO
TITLE "The Loco-Motion"
PERFORMER "Grand Funk Railroad"
INDEX 01 00:00:00
FILE "08. Black Licorice.flac" WAVE
TRACK 08 AUDIO
TITLE "Black Licorice"
PERFORMER "Grand Funk Railroad"
INDEX 01 00:00:00
FILE "09. The Railroad.flac" WAVE
TRACK 09 AUDIO
TITLE "The Railroad"
PERFORMER "Grand Funk Railroad"
INDEX 01 00:00:00
FILE "10. We're an American Band.flac" WAVE
TRACK 10 AUDIO
TITLE "We're an American Band"
PERFORMER "Grand Funk Railroad"
INDEX 01 00:00:00
FILE "11. T.N.U.C..flac" WAVE
TRACK 11 AUDIO
TITLE "T.N.U.C."
PERFORMER "Grand Funk Railroad"
INDEX 01 00:00:00
FILE "12. Inside Looking Out.flac" WAVE
TRACK 12 AUDIO
TITLE "Inside Looking Out"
PERFORMER "Grand Funk Railroad"
INDEX 01 00:00:00
FILE "13. Gimme Shelter.flac" WAVE
TRACK 13 AUDIO
TITLE "Gimme Shelter"
PERFORMER "Grand Funk Railroad"
INDEX 01 00:00:00
Exact Audio Copy V1.0 beta 1 from 15. November 2010

EAC extraction logfile from 18. October 2011, 22:26

Grand Funk Railroad / Caught in the Act

Used drive : HL-DT-STDVDRAM GSA-4163B Adapter: 0 ID: 0

Read mode : Secure
Utilize accurate stream : Yes
Defeat audio cache : Yes
Make use of C2 pointers : No

Read offset correction : 667
Overread into Lead-In and Lead-Out : No
Fill up missing offset samples with silence : Yes
Delete leading and trailing silent blocks : No
Null samples used in CRC calculations : Yes
Used interface : Native Win32 interface for Win NT & 2000
Gap handling : Appended to previous track

Used output format : Benutzerdefinierter Komprimierer
Selected bitrate : 768 kBit/s
Quality : High
Add ID3 tag : No
Command line compressor : C:\Programme\Exact Audio Copy\Flac\flac.exe
Additional command line options : -V -8 -T "artist=%a" -T "title=%t" -T "album=%g" -T "date=%y" -T "tracknumber=%n" -T "genre=%m" %s

TOC of the extracted CD

Track | Start | Length | Start sector | End sector
---------------------------------------------------------
1 | 0:00.00 | 4:14.67 | 0 | 19116
2 | 4:14.67 | 4:02.15 | 19117 | 37281
3 | 8:17.07 | 7:26.68 | 37282 | 70799
4 | 15:44.00 | 7:26.37 | 70800 | 104286
5 | 23:10.37 | 4:30.20 | 104287 | 124556
6 | 27:40.57 | 5:32.38 | 124557 | 149494
7 | 33:13.20 | 3:20.37 | 149495 | 164531
8 | 36:33.57 | 4:52.60 | 164532 | 186491
9 | 41:26.42 | 6:18.08 | 186492 | 214849
10 | 47:44.50 | 3:26.07 | 214850 | 230306
11 | 51:10.57 | 4:40.38 | 230307 | 251344
12 | 55:51.20 | 12:08.25 | 251345 | 305969
13 | 67:59.45 | 6:27.47 | 305970 | 335041

Track 1

Filename C:\EACRips\01. Foot Stompin' Music.wav

Pre-gap length 0:00:02.00

Peak level 94.6 %
Extraction speed 4.0 X
Track quality 100.0 %
Test CRC DDF26B46
Copy CRC DDF26B46
Accurately ripped (confidence 2) [CB6CB98C]
Copy OK

Track 2

Filename C:\EACRips\02. Rock & Roll Soul.wav

Peak level 94.8 %
Extraction speed 5.0 X
Track quality 100.0 %
Test CRC CA6A65BE
Copy CRC CA6A65BE
Accurately ripped (confidence 2) [D8D1C8FE]
Copy OK

Track 3

Filename C:\EACRips\03. Closer to Home.wav

Peak level 94.1 %
Extraction speed 5.7 X
Track quality 100.0 %
Test CRC 50774C87
Copy CRC 50774C87
Accurately ripped (confidence 2) [15781539]
Copy OK

Track 4

Filename C:\EACRips\04. Heartbreaker.wav

Peak level 92.8 %
Extraction speed 6.2 X
Track quality 100.0 %
Test CRC E9CC6EEB
Copy CRC E9CC6EEB
Accurately ripped (confidence 2) [7725BA74]
Copy OK

Track 5

Filename C:\EACRips\05. Some Kind of Wonderful.wav

Peak level 93.2 %
Extraction speed 6.7 X
Track quality 100.0 %
Test CRC 015D7BC9
Copy CRC 015D7BC9
Accurately ripped (confidence 2) [091D6143]
Copy OK

Track 6

Filename C:\EACRips\06. Shinin' On.wav

Peak level 95.6 %
Extraction speed 7.2 X
Track quality 100.0 %
Test CRC 9F342DE3
Copy CRC 9F342DE3
Accurately ripped (confidence 2) [1ABDABDA]
Copy OK

Track 7

Filename C:\EACRips\07. The Loco-Motion.wav

Peak level 91.4 %
Extraction speed 7.0 X
Track quality 100.0 %
Test CRC 150B9522
Copy CRC 150B9522
Accurately ripped (confidence 2) [2FA22AF5]
Copy OK

Track 8

Filename C:\EACRips\08. Black Licorice.wav

Peak level 92.9 %
Extraction speed 7.5 X
Track quality 100.0 %
Test CRC 2F5661FE
Copy CRC 2F5661FE
Accurately ripped (confidence 2) [7A3B09CE]
Copy OK

Track 9

Filename C:\EACRips\09. The Railroad.wav

Peak level 92.4 %
Extraction speed 8.4 X
Track quality 100.0 %
Test CRC 2E4F65B2
Copy CRC 2E4F65B2
Accurately ripped (confidence 2) [7BF1AFB9]
Copy OK

Track 10

Filename C:\EACRips\10. We're an American Band.wav

Peak level 93.2 %
Extraction speed 7.9 X
Track quality 100.0 %
Test CRC B1A7DF42
Copy CRC B1A7DF42
Accurately ripped (confidence 2) [8D5D428C]
Copy OK

Track 11

Filename C:\EACRips\11. T.N.U.C..wav

Peak level 92.6 %
Extraction speed 8.6 X
Track quality 100.0 %
Test CRC 598C1EB1
Copy CRC 598C1EB1
Accurately ripped (confidence 2) [D2EAA6DC]
Copy OK

Track 12

Filename C:\EACRips\12. Inside Looking Out.wav

Peak level 96.0 %
Extraction speed 9.9 X
Track quality 100.0 %
Test CRC B33B8696
Copy CRC B33B8696
Accurately ripped (confidence 2) [763BF20B]
Copy OK

Track 13

Filename C:\EACRips\13. Gimme Shelter.wav

Peak level 93.7 %
Extraction speed 10.1 X
Track quality 100.0 %
Test CRC 19D812BE
Copy CRC 19D812BE
Accurately ripped (confidence 2) [40BA71A4]
Copy OK

All tracks accurately ripped

No errors occurred

End of status report

==== Log checksum 3ECC360D7E0BFDAA4E8074F23F46C01081048E004C2FEE973B556890DC60792E ====
Страна-производитель диска: USA
Лейбл: Capirol Records
Номер по каталогу: 72438-21935-2-4
Год издания: 1997
Тип рипа: image+.cue
Продолжительность: 1:40:45 (1:04:20+36:25)
Источник: http://рутраскер [Happy Jack]
Disc 1:
1. 2001: A Space Odyssey (Intro) (1:26)
2. Are You Ready (3:26)
3. Rock 'N Roll Soul (3:50)
4. A Footstompin' Music (4:19)
5. Time Machine (3:29)
6. Medley: - Paranoid - Sin's A Good Man's Brother - Mr. Limousine Driver (7:17)
7. Heartbreaker (7:38)
8. Aimless Lady (3:53)
9. T.N.U.C. (7:25)
10. Inside Looking Out (10:22)
11. Shinin' On (3:37)
12. The Loco-Motion (3:41)
13. We're An American Band (3:58)

Disc 2:
1. Overture (2:59)
2. Mean Mistreater (4:26)
3. Some Kind Of Wonderful (3:58)
4. To Get Back In (4:02)
5. Bad Time (2:57)
6. I'm Your Captain/Closer To Home (9:04)
7. Loneliness (9:00)
Mark Farner: Guitar, Vocals
Don Brewer: Drums, Vocals
Mel Schacher: Bass
Howard Eddy: Keyboards, Vocals
Paul Schaffer: Symphony Orchestra Conductor
Peter Frampton: Special Guest on Guitar
Alto Reed: Saxophone
Uptown Horns: Horns
REM GENRE Hard Rock
REM DATE 1997
REM DISCID B20F130D
REM COMMENT ExactAudioCopy v0.95b4
PERFORMER "Grand Funk Railroad"
TITLE "Bosnia [Disc 1]"
FILE "Bosnia [Disc 1].flac" WAVE
TRACK 01 AUDIO
TITLE "2001: A Space Odyssey (Intro)"
INDEX 01 00:00:00
TRACK 02 AUDIO
TITLE "Are You Ready"
INDEX 01 01:25:45
TRACK 03 AUDIO
TITLE "Rock 'N Roll Soul"
INDEX 01 04:51:22
TRACK 04 AUDIO
TITLE "Footstompin' Music"
INDEX 01 08:41:05
TRACK 05 AUDIO
TITLE "Time Machine"
INDEX 01 12:59:57
TRACK 06 AUDIO
TITLE "Medley: - Paranoid - Sin's A Good Man's Brother - Mr. Limousine Driver"
INDEX 01 16:28:40
TRACK 07 AUDIO
TITLE "Heartbreaker"
INDEX 01 23:45:32
TRACK 08 AUDIO
TITLE "Aimless Lady"
INDEX 01 31:23:12
TRACK 09 AUDIO
TITLE "T.N.U.C."
INDEX 01 35:16:07
TRACK 10 AUDIO
TITLE "Inside Looking Out"
INDEX 01 42:40:70
TRACK 11 AUDIO
TITLE "Shinin' On"
INDEX 01 53:03:17
TRACK 12 AUDIO
TITLE "The Loco-Motion"
INDEX 01 56:40:42
TRACK 13 AUDIO
TITLE "We're An American Band"
INDEX 01 60:21:35
REM GENRE Hard Rock
REM DATE 1997
REM DISCID 59088907
REM COMMENT ExactAudioCopy v0.95b4
PERFORMER "Grand Funk Railroad"
TITLE "Bosnia [Disc 2]"
FILE "Bosnia [Disc 2].flac" WAVE
TRACK 01 AUDIO
TITLE "Overture"
INDEX 01 00:00:00
TRACK 02 AUDIO
TITLE "Mean Mistreater"
INDEX 01 02:59:37
TRACK 03 AUDIO
TITLE "Some Kind Of Wonderful"
INDEX 01 07:25:57
TRACK 04 AUDIO
TITLE "To Get Back In"
INDEX 01 11:24:12
TRACK 05 AUDIO
TITLE "Bad Time"
INDEX 01 15:25:57
TRACK 06 AUDIO
TITLE "I'm Your Captain/Closer To Home"
INDEX 01 18:22:30
TRACK 07 AUDIO
TITLE "Loneliness"
INDEX 01 27:25:70
EAC extraction logfile from 16. December 2007, 1:00 for CD
Grand Funk Railroad / Bosnia (Disc 1)

Used drive : _NEC DVD+-RW ND-6500A Adapter: 0 ID: 0
Read mode : Secure with NO C2, accurate stream, disable cache
Read offset correction : 48
Overread into Lead-In and Lead-Out : No

Used output format : Internal WAV Routines
44.100 Hz; 16 Bit; Stereo

Other options :
Fill up missing offset samples with silence : Yes
Delete leading and trailing silent blocks : No
Installed external ASPI interface

Range status and errors
Selected range
Filename D:\Temp\Grand Funk Railroad - Bosnia (Disc 1).wav

Peak level 98.8 %
Range quality 100.0 %
CRC 1EBB066E
Copy OK

No errors occured

End of status report
EAC extraction logfile from 16. December 2007, 1:12 for CD
Grand Funk Railroad / Bosnia (Disc 2)

Used drive : _NEC DVD+-RW ND-6500A Adapter: 0 ID: 0
Read mode : Secure with NO C2, accurate stream, disable cache
Read offset correction : 48
Overread into Lead-In and Lead-Out : No

Used output format : Internal WAV Routines
44.100 Hz; 16 Bit; Stereo

Other options :
Fill up missing offset samples with silence : Yes
Delete leading and trailing silent blocks : No
Installed external ASPI interface

Range status and errors
Selected range
Filename D:\Temp\Grand Funk Railroad - Bosnia (Disc 2).wav

Peak level 98.8 %
Range quality 100.0 %
CRC 3B060F8C
Copy OK

No errors occured

End of status report
Страна-производитель диска: USA
Лейбл: Capirol Records
Номер по каталогу: 72435-39501-2-5
Год издания: 2002
Тип рипа: image+.cue
Продолжительность: 1:09:07
Источник: hqshare.net
1. Intro (1:39)
2. Are You Ready (3:12)
3. Footstompin' Music (5:25)
4. Paranoid (6:04)
5. I'm Your Captain/Closer To Home (5:49)
6. Hooked On Love (2:46)
7. Get It Together (2:46)
8. T.N.U.C. (17:12)
9. Inside Looking Out (15:30)
10. Gimme Shelter (8:45)
11. Into The Sun (9:50)
Don Brewer: Drums, Vocals
Mark Farner: Guitars, Organ, Harmonica, Percussion, Vocals
Mel Schacher: Bass Guitar, Percussion
REM GENRE Hard Rock
REM DATE 2002
PERFORMER "Grand Funk Railroad"
TITLE "Live (The 1971 Tour)"
FILE "Live (The 1971 Tour).flac" WAVE
TRACK 01 AUDIO
TITLE "Intro"
ISRC USCA20200201
INDEX 01 00:00:00
TRACK 02 AUDIO
TITLE "Are You Ready"
ISRC USCA20200202
FLAGS DCP
INDEX 01 01:39:02
TRACK 03 AUDIO
TITLE "Footstopin' Music"
ISRC USCA20200203
FLAGS DCP
INDEX 01 04:50:67
TRACK 04 AUDIO
TITLE "Paranoid"
ISRC USCA20200203
FLAGS DCP
INDEX 01 10:15:57
TRACK 05 AUDIO
TITLE "I'm Your Captain/Closer To Home"
ISRC USCA20200205
FLAGS DCP
INDEX 01 16:19:52
TRACK 06 AUDIO
TITLE "Hooked On Love"
ISRC USCA20200206
FLAGS DCP
INDEX 01 22:08:20
TRACK 07 AUDIO
TITLE "Get It Together"
ISRC USCA20200207
FLAGS DCP
INDEX 01 24:54:07
TRACK 08 AUDIO
TITLE "T.N.U.C."
ISRC USCA20200208
FLAGS DCP
INDEX 01 27:40:10
TRACK 09 AUDIO
TITLE "Inside Looking Out"
ISRC USCA20200209
FLAGS DCP
INDEX 01 44:52:12
TRACK 10 AUDIO
TITLE "Gimme Shelter"
ISRC USCA20200210
FLAGS DCP
INDEX 01 60:22:32
TRACK 11 AUDIO
TITLE "Into The Sun"
ISRC USCA20200211
FLAGS DCP
INDEX 01 69:07:17
EAC extraction logfile from 18. October 2006, 6:58 for CD
Grand Funk Railroad / Live - The 1971 Tour

Used drive : PLEXTOR DVDR PX-740A Adapter: 0 ID: 0
Read mode : Secure with NO C2, accurate stream, disable cache
Read offset correction : 618
Overread into Lead-In and Lead-Out : No

Used output format : Internal WAV Routines
44.100 Hz; 16 Bit; Stereo

Other options :
Fill up missing offset samples with silence : Yes
Delete leading and trailing silent blocks : No
Installed external ASPI interface

Range status and errors
Selected range
Filename H:\HQshare.net\Grand Funk\CDImage.wav

Peak level 98.8 %
Range quality 99.9 %
CRC 4735E42A
Copy OK

No errors occured

End of status report


Трекер:  [ 03-Июл-2012 17:44 ]

  

Скачать .torrent

Размер .torrent файла 46 KB


Размер: 5.92 GB
Хэш (hash) релиза: fbc62161810d4cbb9dc288e2cf8934a589db051b

Еще никто не оставлял запись к записи скачать торрент Grand Funk Railroad - Discography Дискография . Будь первым!

!Обратная связь