Скачать через торрент музыку The Doobie Brothers 1974-What Were Once Vices Are Now Habits бесплатно без регистрации torrent

Если у вас наблюдаются проблемы со скриншотами, переходом по ссылками, скачиванием торрентов - проблемы в блокировщике рекламы AdBlock. #хорошегоДня!


Статистика раздачи
Размер:  323 MB   |    Зарегистрирован:  5 лет 1 месяц   |    .torrent скачан:  25 раз   |   
Раздают:  1  
   
Загрузка...
 
Автор Сообщение

Umakiro

avatar Umakiro


The Doobie Brothers
1974-What Were Once Vices Are Now Habits
[2011, MFSL UDSACD 2060]

Жанр: Rock
Страна-производитель диска: USA
Год выхода альбома / издания диска: 1974 / 2011
Издатель (лейбл): Mobile Fidelity Sound Lab
Номер по каталогу: UDSACD 2060
Аудио кодек: FLAC (*.flac)
Тип рипа: image+.cue
Битрейт аудио: lossless
Продолжительность: 45:07
Источник (релизер): taurus66 (NetLab)
Наличие сканов в содержимом раздачи:
01. Song To See You Through (4:08)
02. Spirit (3:16)
03. Pursuit On 53rd St. (2:35)
04. Black Water (4:21)
05. Eyes Of Silver (3:01)
06. Road Angel (4:52)
07. You Just Can't Stop It (3:31)
08. Tell Me What You Want (And I'll Give You What You Need) (3:55)
09. Down In The Track (4:17)
10. Another Park, Another Sunday (4:30)
11. Daughters Of The Sea (4:32)
12. Flying Cloud (2:09)
  
Exact Audio Copy V1.0 beta 3 from 29. August 2011

EAC extraction logfile from 30. June 2012, 7:01

The Doobie Brothers / What Were Once Vices Are Now Habits [MFSL UDSACD 2060]

Used drive : HL-DT-STDVDRAM GH22NS90 Adapter: 4 ID: 0

Read mode : SecureUtilize accurate stream : YesDefeat audio cache : YesMake use of C2 pointers : No

Read offset correction : 6Overread into Lead-In and Lead-Out : NoFill up missing offset samples with silence : YesDelete leading and trailing silent blocks : NoNull samples used in CRC calculations : YesUsed interface : Installed external ASPI interface

Used output format : User Defined EncoderSelected bitrate : 1024 kBit/sQuality : HighAdd ID3 tag : NoCommand line compressor : D:\Program Files (x86)\Exact Audio Copy\wavpack.exeAdditional command line options : -hlmx2 %source% %dest%

TOC of the extracted CD

Track | Start | Length | Start sector | End sector --------------------------------------------------------- 1 | 0:00.00 | 4:08.07 | 0 | 18606 2 | 4:08.07 | 3:15.61 | 18607 | 33292 3 | 7:23.68 | 2:35.35 | 33293 | 44952 4 | 9:59.28 | 4:21.00 | 44953 | 64527 5 | 14:20.28 | 3:00.46 | 64528 | 78073 6 | 17:20.74 | 4:52.35 | 78074 | 100008 7 | 22:13.34 | 3:30.67 | 100009 | 115825 8 | 25:44.26 | 3:54.72 | 115826 | 133447 9 | 29:39.23 | 4:17.27 | 133448 | 152749 10 | 33:56.50 | 4:30.32 | 152750 | 173031 11 | 38:27.07 | 4:32.03 | 173032 | 193434 12 | 42:59.10 | 2:08.49 | 193435 | 203083

Range status and errors

Selected range

Filename D:\eac\The Doobie Brothers\The Doobie Brothers - What Were Once Vices Are Now Habits [MFSL UDSACD 2060].wav

Peak level 95.6 % Extraction speed 1.8 X Range quality 99.9 % Test CRC 4633B1ED Copy CRC 4633B1ED Copy OK

No errors occurred

AccurateRip summary

Track 1 accurately ripped (confidence 1) [47307D97] (AR v2)Track 2 accurately ripped (confidence 1) [C971A656] (AR v2)Track 3 accurately ripped (confidence 1) [973AD667] (AR v2)Track 4 accurately ripped (confidence 1) [699680FE] (AR v2)Track 5 accurately ripped (confidence 1) [66895F72] (AR v2)Track 6 accurately ripped (confidence 1) [756C4A6D] (AR v2)Track 7 accurately ripped (confidence 1) [CDB20776] (AR v2)Track 8 accurately ripped (confidence 1) [10BB0504] (AR v2)Track 9 accurately ripped (confidence 1) [90D753DA] (AR v2)Track 10 accurately ripped (confidence 1) [73963129] (AR v2)Track 11 accurately ripped (confidence 1) [E314CA5A] (AR v2)Track 12 accurately ripped (confidence 1) [596F1FF0] (AR v2)

All tracks accurately ripped

End of status report

---- CUETools DB Plugin V2.1.3

[CTDB TOCID: k9.oXmhFc_rPwziNndTGZfAdSGo-] found, Submit result: k9.oXmhFc_rPwziNndTGZfAdSGo- has been confirmed[bc4a477e] (1/1) Accurately ripped

==== Log checksum E17A8C0F01609E77A63618D354C6E5E8B8D9D57770743CF475494178C50E1DD7 ====
  
REM GENRE "Rock"REM DATE 1974REM DISCID 8C0A930CREM COMMENT "ExactAudioCopy v1.0b3"PERFORMER "The Doobie Brothers"TITLE "What Were Once Vices Are Now Habits [MFSL UDSACD 2060]"FILE "The Doobie Brothers - What Were Once Vices Are Now Habits [MFSL].flac" WAVE TRACK 01 AUDIO TITLE "Song To See You Through" PERFORMER "The Doobie Brothers" ISRC USWB10903457 INDEX 01 00:00:00 TRACK 02 AUDIO TITLE "Spirit" PERFORMER "The Doobie Brothers" ISRC USWB10903458 INDEX 00 04:06:10 INDEX 01 04:08:07 TRACK 03 AUDIO TITLE "Pursuit On 53rd St." PERFORMER "The Doobie Brothers" ISRC USWB10903459 INDEX 00 07:22:06 INDEX 01 07:23:68 TRACK 04 AUDIO TITLE "Black Water" PERFORMER "The Doobie Brothers" ISRC USWB10903460 INDEX 00 09:57:29 INDEX 01 09:59:28 TRACK 05 AUDIO TITLE "Eyes Of Silver" PERFORMER "The Doobie Brothers" ISRC USWB10903461 INDEX 00 14:18:29 INDEX 01 14:20:28 TRACK 06 AUDIO TITLE "Road Angel" PERFORMER "The Doobie Brothers" ISRC USWB10903462 INDEX 00 17:19:08 INDEX 01 17:20:74 TRACK 07 AUDIO TITLE "You Just Can't Stop It" PERFORMER "The Doobie Brothers" ISRC USWB10903463 INDEX 00 22:08:54 INDEX 01 22:13:34 TRACK 08 AUDIO TITLE "Tell Me What You Want (And I'll Give You What You Need)" PERFORMER "The Doobie Brothers" ISRC USWB10903464 INDEX 00 25:41:35 INDEX 01 25:44:26 TRACK 09 AUDIO TITLE "Down In The Track" PERFORMER "The Doobie Brothers" ISRC USWB10903465 INDEX 00 29:37:00 INDEX 01 29:39:23 TRACK 10 AUDIO TITLE "Another Park, Another Sunday" PERFORMER "The Doobie Brothers" ISRC USWB10903466 INDEX 00 33:54:36 INDEX 01 33:56:50 TRACK 11 AUDIO TITLE "Daughters Of The Sea" PERFORMER "The Doobie Brothers" ISRC USWB10903467 INDEX 00 38:25:02 INDEX 01 38:27:07 TRACK 12 AUDIO TITLE "Flying Cloud" PERFORMER "The Doobie Brothers" ISRC USWB10903467 INDEX 01 42:59:10
  
[CUETools log; Date: 03.07.2012 12:09:41; Version: 2.1.4][CTDB TOCID: k9.oXmhFc_rPwziNndTGZfAdSGo-] found.Track | CTDB Status 1 | (2/2) Accurately ripped 2 | (2/2) Accurately ripped 3 | (2/2) Accurately ripped 4 | (2/2) Accurately ripped 5 | (2/2) Accurately ripped 6 | (2/2) Accurately ripped 7 | (2/2) Accurately ripped 8 | (2/2) Accurately ripped 9 | (2/2) Accurately ripped 10 | (2/2) Accurately ripped 11 | (2/2) Accurately ripped 12 | (2/2) Accurately ripped[AccurateRip ID: 0014013f-00bc1bb1-8c0a930c] found.Track [ CRC | V2 ] Status 01 [157b042c|47307d97] (0+1/1) Accurately ripped 02 [0c9bc818|c971a656] (0+1/1) Accurately ripped 03 [b8d9f4c5|973ad667] (0+1/1) Accurately ripped 04 [b2eec3de|699680fe] (0+1/1) Accurately ripped 05 [7f30106c|66895f72] (0+1/1) Accurately ripped 06 [1630b43b|756c4a6d] (0+1/1) Accurately ripped 07 [c8664e9b|cdb20776] (0+1/1) Accurately ripped 08 [93621ff3|10bb0504] (0+1/1) Accurately ripped 09 [7ae28b6e|90d753da] (0+1/1) Accurately ripped 10 [6df5028b|73963129] (0+1/1) Accurately ripped 11 [238deb1c|e314ca5a] (0+1/1) Accurately ripped 12 [dcaad5e3|596f1ff0] (0+1/1) Accurately ripped

Track Peak [ CRC32 ] [W/O NULL] [ LOG ] -- 95,6 [4633B1ED] [DAC25CAD] CRC32 01 95,6 [F66678D1] [F8C2788D] 02 85,3 [DBA50E0B] [BEE46053] 03 79,5 [327AFE66] [1796674F] 04 69,3 [CA3A96CC] [54DF1E03] 05 85,9 [F165B3B7] [DD4596BE] 06 79,6 [0301C944] [5D7F8CD8] 07 80,1 [99B98183] [51C77AAF] 08 79,9 [76F507C9] [FBCD0DD7] 09 91,5 [ABFEE504] [BE844211] 10 83,7 [357AD43B] [12A26246] 11 76,9 [7191EC28] [3BE156C5] 12 55,9 [E27D8993] [7FC6BC52]
  
foobar2000 1.1.1 / Dynamic Range Meter 1.1.1log date: 2012-07-03 12:08:45

--------------------------------------------------------------------------------Analyzed: The Doobie Brothers / What Were Once Vices Are Now Habits [MFSL UDSACD 2060]--------------------------------------------------------------------------------

DR Peak RMS Duration Track--------------------------------------------------------------------------------DR12 -0.39 dB -16.61 dB 4:08 01-Song To See You ThroughDR13 -1.37 dB -17.93 dB 3:16 02-SpiritDR12 -1.99 dB -16.31 dB 2:35 03-Pursuit On 53rd St.DR12 -3.18 dB -18.64 dB 4:21 04-Black WaterDR13 -1.32 dB -17.25 dB 3:01 05-Eyes Of SilverDR13 -1.98 dB -16.49 dB 4:52 06-Road AngelDR12 -1.92 dB -16.80 dB 3:31 07-You Just Can't Stop ItDR13 -1.95 dB -18.07 dB 3:55 08-Tell Me What You Want (And I'll Give You What You Need)DR13 -0.77 dB -16.67 dB 4:17 09-Down In The TrackDR12 -1.54 dB -18.02 dB 4:30 10-Another Park, Another SundayDR13 -2.28 dB -18.29 dB 4:32 11-Daughters Of The SeaDR13 -5.05 dB -22.13 dB 2:09 12-Flying Cloud--------------------------------------------------------------------------------

Number of tracks: 12Official DR value: DR13

Samplerate: 44100 HzChannels: 2Bits per sample: 16Bitrate: 854 kbpsCodec: FLAC

What could the Doobie Brothers possibly do to follow-up the excellent The Captain and Me? Plenty. They started by inviting the Memphis Horns to inject more soul into their trademark, Southern-styled boogie rock. Next, they secured the services of Steely Dan virtuoso Jeff “Skunk” Baxter to supply guitar and pedal-steel parts. And for extra spice, the band recruitedArlo Guthrie to play autoharp. The results? What Were Once Vices Are Now Habits, the group’s most diverse album to date.It’s just one reason Mobile Fidelity is proud to include the 1974 effort in its phenomenal Doobie Brothers catalog restoration series.

Of course, no record is worth its salt without sharp songwriting. Fret not. What Were Once Vices Are Now Habits overflows with one memorable tune after another. It’s a true collective effort, with the material reflecting the musical strengths of each of the members. Picking up where the disbanded Creedence Clearwater Revival had left off, Tom Johnston contributes the rousing “Pursuit on 53rd Street” and “Down in the Track.” Patrick Simmons’ “Black Water” advances swamp rock, and gave the band its first Number One hit.

The Doobies also mine the country-rock vein like nobody’s business. “Tell Me What You Want (And I’ll Give You What You Need)” and “Another Park, Another Sunday” cross roots rhythms with edgy melodies. And the instrumental “Flying Cloud,” contributed by bassist Tiran Porter, finds the Doobies further expanding their sonic palette while remaining faithful to their loose, good-time themes. By every stretch, What Were Once Vices Are Now Habits defies easy categorization yet soars on amiable vibes designed to satisfy the listener. Having reached #4 on the Billboard Album charts, it’s safe to say the public was indeed impressed.

Mobile Fidelity’s engineers had the same goals in mind when mastering this 70s rock classic from the original master tapes. And so the Doobie Brothers’ dual-drum approach now resonates with a punchiness it never previously possessed.Johnson’s high-pitched vocals no longer hit an artificial ceiling or lurk behind a veiled curtain. The Memphis Horns’ brassy accents carry, and the all-important midrange sounds immediate, transparent, and dynamic.

The Doobie Brothers:
• Patrick Simmons - guitar, vocals
• Tom Johnston - guitar, vocals
• Tiran Porter - bass, vocals
• John (Little John) Hartman - drums
• Michael Hossack - drums

Additional Players:
• Keith Knudsen - backing vocals
• Jeff "Skunk" Baxter - guitar, pedal steel, steel guitar
• James Booker - piano on "Down In The Track"
• Arlo Guthrie - autoharp, harmonica
• Eddie Guzman - conga, timbales, and other percussion instruments
• Jack Hale - trombone
• Milt Holland - tabla, marimba, pandeiro, and other percussion instruments
• Wayne Jackson - trumpet
• Andrew Love - tenor saxophone
• James Mitchell - baritone saxophone
• Novi Novog - viola on "Black Water"
• Bill Payne - keyboards
• Ted Templeman - percussion
Огромное спасибо оригинальному релизеру!


Трекер:  [ 03-Июл-2012 17:43 ]

  

Скачать .torrent

Размер .torrent файла 14 KB


Размер: 323 MB
Хэш (hash) релиза: ad0e773a8fa6f2ac97bd89ec5754b9ad19783769

Еще никто не оставлял запись к записи скачать торрент The Doobie Brothers 1974-What Were Once Vices Are Now Habits . Будь первым!

!Обратная связь