Скачать через торрент музыку Robert Plant 1985-Shaken N Stirred бесплатно без регистрации torrent

Если у вас наблюдаются проблемы со скриншотами, переходом по ссылками, скачиванием торрентов - проблемы в блокировщике рекламы AdBlock. #хорошегоДня!


Статистика раздачи
Размер:  307 MB   |    Зарегистрирован:  5 лет 1 месяц   |    .torrent скачан:  25 раз   |   
Раздают:  1  
   
Загрузка...
 
Автор Сообщение

Umakiro

avatar Umakiro


Robert Plant
1985-Shaken 'N' Stirred
[Es Paranza A2-90265, Original Press]

Жанр: Electronic / Rock / Pop Rock
Страна исполнителя: United Kingdom
Страна-производитель диска: USA
Год выхода альбома: 1985
Год издания диска: 198?
Издатель (лейбл): Es Paranza
Номер по каталогу: A2-90265
Аудио кодек: FLAC (*.flac)
Тип рипа: image+.cue
Битрейт аудио: lossless
Продолжительность: 41:59
Источник: edenika (NetLab)
Наличие сканов в содержимом раздачи:
01. Hip To Hoo (4:51)
02. Kallalou Kallalou (4:19)
03. Too Loud (4:10)
04. Trouble Your Money (4:15)
05. Pink And Black (3:47)
06. Little By Little (4:46)
07. Doo Doo A Do Do (5:11)
08. Easily Lead (4:39)
09. Sixes And Sevens (6:01)
  
Exact Audio Copy V1.0 beta 3 from 29. August 2011

EAC extraction logfile from 1. July 2012, 18:30

Robert Plant / Shaken 'N Stirred

Used drive : HL-DT-STDVDRAM GH22NS50 Adapter: 1 ID: 1

Read mode : SecureUtilize accurate stream : YesDefeat audio cache : YesMake use of C2 pointers : No

Read offset correction : 667Overread into Lead-In and Lead-Out : NoFill up missing offset samples with silence : YesDelete leading and trailing silent blocks : NoNull samples used in CRC calculations : YesUsed interface : Native Win32 interface for Win NT & 2000

Used output format : Internal WAV RoutinesSample format : 44.100 Hz; 16 Bit; Stereo

TOC of the extracted CD

Track | Start | Length | Start sector | End sector --------------------------------------------------------- 1 | 0:01.00 | 4:51.32 | 75 | 21931 2 | 4:52.32 | 4:18.45 | 21932 | 41326 3 | 9:11.02 | 4:10.20 | 41327 | 60096 4 | 13:21.22 | 4:15.35 | 60097 | 79256 5 | 17:36.57 | 3:47.05 | 79257 | 96286 6 | 21:23.62 | 4:45.60 | 96287 | 117721 7 | 26:09.47 | 5:10.63 | 117722 | 141034 8 | 31:20.35 | 4:38.72 | 141035 | 161956 9 | 35:59.32 | 6:00.73 | 161957 | 189029

Range status and errors

Selected range

Filename C:\Music CD\Robert Plant - Shaken 'N Stirred.wav

Peak level 91.3 % Extraction speed 1.9 X Range quality 100.0 % Test CRC 86D31749 Copy CRC 86D31749 Copy OK

No errors occurred

AccurateRip summary

Track 1 accurately ripped (confidence 10) [A23AF10B] (AR v1)Track 2 accurately ripped (confidence 10) [E64337CE] (AR v1)Track 3 accurately ripped (confidence 10) [BCBF3135] (AR v1)Track 4 accurately ripped (confidence 10) [761AEA71] (AR v1)Track 5 accurately ripped (confidence 10) [0A14216D] (AR v1)Track 6 accurately ripped (confidence 10) [FB405EC7] (AR v1)Track 7 accurately ripped (confidence 9) [EFA075CD] (AR v1)Track 8 accurately ripped (confidence 8) [02767CDF] (AR v1)Track 9 accurately ripped (confidence 9) [98DD8F3E] (AR v1)

All tracks accurately ripped

End of status report

==== Log checksum 753C90A31041342740D07FA9A0A5D4142ABA7F08935EBE1882A9AB205E557202 ====
  
REM GENRE "Rock"REM DATE 1985REM DISCID 7309D709REM COMMENT "ExactAudioCopy v1.0b3"REM ACCURATERIPID 000dddaf-0065f7c2-7309d709REM DISCNUMBER 1REM TOTALDISCS 1PERFORMER "Robert Plant"TITLE "Shaken 'N' Stirred"FILE "Robert Plant - Shaken 'N' Stirred.flac" WAVE TRACK 01 AUDIO TITLE "Hip To Hoo" PERFORMER "Robert Plant" INDEX 00 00:00:00 INDEX 01 00:01:00 TRACK 02 AUDIO TITLE "Kallalou Kallalou" PERFORMER "Robert Plant" INDEX 00 04:51:17 INDEX 01 04:52:32 TRACK 03 AUDIO TITLE "Too Loud" PERFORMER "Robert Plant" INDEX 00 09:08:60 INDEX 01 09:11:02 TRACK 04 AUDIO TITLE "Trouble Your Money" PERFORMER "Robert Plant" INDEX 00 13:19:05 INDEX 01 13:21:22 TRACK 05 AUDIO TITLE "Pink And Black" PERFORMER "Robert Plant" INDEX 00 17:35:50 INDEX 01 17:36:57 TRACK 06 AUDIO TITLE "Little By Little" PERFORMER "Robert Plant" INDEX 00 21:21:62 INDEX 01 21:23:62 TRACK 07 AUDIO TITLE "Doo Doo A Do Do" PERFORMER "Robert Plant" INDEX 00 26:07:52 INDEX 01 26:09:47 TRACK 08 AUDIO TITLE "Easily Lead" PERFORMER "Robert Plant" INDEX 00 31:20:32 INDEX 01 31:20:35 TRACK 09 AUDIO TITLE "Sixes And Sevens" PERFORMER "Robert Plant" INDEX 00 35:55:45 INDEX 01 35:59:32
  
[CUETools log; Date: 03.07.2012 12:35:39; Version: 2.1.4]Pregap length 00:01:00.[CTDB TOCID: _Uhv_dG0Oa6_9Dm.sheebWwIQ6s-] disk not present in database.[AccurateRip ID: 000dddaf-0065f7c2-7309d709] found.Track [ CRC | V2 ] Status 01 [a23af10b|d90c7f7a] (10+00/10) Accurately ripped 02 [e64337ce|5423789d] (10+00/10) Accurately ripped 03 [bcbf3135|a87c3bfa] (10+00/10) Accurately ripped 04 [761aea71|fe27f19b] (10+00/10) Accurately ripped 05 [0a14216d|87caf9a5] (10+00/10) Accurately ripped 06 [fb405ec7|cefb66a6] (10+00/10) Accurately ripped 07 [efa075cd|4ee66b12] (09+00/09) Accurately ripped 08 [02767cdf|cbc8f43c] (08+00/08) Accurately ripped 09 [98dd8f3e|16360781] (09+00/09) Accurately ripped

Track Peak [ CRC32 ] [W/O NULL] [ LOG ] -- 91,3 [86D31749] [7DE37B3A] CRC32 01 87,0 [4A74AA29] [7FEA33AD] 02 87,0 [AEBEA930] [08F9F4B2] 03 91,3 [1F168E9A] [5B141610] 04 87,0 [BF15C710] [45AF7471] 05 90,7 [3F5C4443] [BCB08EC7] 06 85,8 [DB537C4A] [364B5AFB] 07 87,0 [9DEC95F8] [2FAD7BC8] 08 89,1 [E6BBFCCB] [B07A360F] 09 87,0 [D32A7472] [3F38D1D8]
  
foobar2000 1.1.1 / Dynamic Range Meter 1.1.1log date: 2012-07-03 12:33:12

--------------------------------------------------------------------------------Analyzed: Robert Plant / Shaken 'N' Stirred--------------------------------------------------------------------------------

DR Peak RMS Duration Track--------------------------------------------------------------------------------DR15 -1.20 dB -18.62 dB 4:51 01-Hip To HooDR15 -1.20 dB -18.20 dB 4:19 02-Kallalou KallalouDR15 -0.79 dB -18.24 dB 4:10 03-Too LoudDR15 -1.20 dB -19.65 dB 4:15 04-Trouble Your MoneyDR13 -0.85 dB -16.24 dB 3:47 05-Pink And BlackDR15 -1.33 dB -18.69 dB 4:46 06-Little By LittleDR14 -1.20 dB -18.05 dB 5:11 07-Doo Doo A Do DoDR15 -1.00 dB -17.10 dB 4:39 08-Easily LeadDR15 -1.20 dB -18.36 dB 6:01 09-Sixes And Sevens--------------------------------------------------------------------------------

Number of tracks: 9Official DR value: DR15

Samplerate: 44100 HzChannels: 2Bits per sample: 16Bitrate: 863 kbpsCodec: FLAC

Credits:
• Robert Plant - vocals, producer
• Robbie Blunt - guitar, synthesized guitar
• Toni Halliday - vocals
• Richie Hayward - drums
• Paul Martinez - bass guitar
• Jezz Woodroffe - keyboards

• Tim Palmer - producer, engineer
• Benji Le Fevre - producer, engineer
Огромное спасибо автору рипа!


Трекер:  [ 03-Июл-2012 17:43 ]

  

Скачать .torrent

Размер .torrent файла 13 KB


Размер: 307 MB
Хэш (hash) релиза: 213c7ca5381b4d0e21048ac8aac80930e6396882

Торренты, похожие на Robert Plant 1985-Shaken N Stirred скачать торрент

Форум Название Автор Размер S L Добавлен
Rосk | Mеtаl | Аltеrnаtivе, Рunk, Indереndеnt (losslеss) ·· (Rock) Robert Plant - Shaken 'N' Stirred [Japanese Remastered + Expanded 2007/ CD Box/ WPCR-75315] - 1985, APE (image+.cue), lossless Galfimbul 451935814431 MB 0 0 1297875963

20:06

16-Фев-11

Еще никто не оставлял запись к записи скачать торрент Robert Plant 1985-Shaken N Stirred . Будь первым!

!Обратная связь