Скачать через торрент музыку Glen Hansard - Rhythm and Repose - 2012, FLAC бесплатно без регистрации torrent

Если у вас наблюдаются проблемы со скриншотами, переходом по ссылками, скачиванием торрентов - проблемы в блокировщике рекламы AdBlock. #хорошегоДня!


Статистика раздачи
Размер:  220 MB   |    Зарегистрирован:  5 лет 4 месяца   |    .torrent скачан:  27 раз   |   
Раздают:  1  
   
Загрузка...
 
Автор Сообщение

Umakiro

avatar Umakiro


Glen Hansard / Rhythm and Repose

Страна:
Жанр: Indie Folk
Год издания: 2012
Аудиокодек: FLAC (*.flac)
Тип рипа: tracks+.cue
Битрейт аудио: lossless
Продолжительность: 46:47
Источник (релизер): What.cd
Наличие сканов в содержимом раздачи: нет
Треклист:
01. You Will Become (3:48)
02. Maybe Not Tonight (5:30)
03. Talking with the Wolves (4:44)
04. High Hope (3:55)
05. Bird of Sorrow (5:51)
06. The Storm, It's Coming (3:28)
07. Love Don't Leave Me Waiting (4:17)
08. What Are We Gonna Do (3:00)
09. Races (4:34)
10. Philander (3:52)
11. Song of Good Hope (3:48)
  
Exact Audio Copy V1.0 beta 1 from 15. November 2010

EAC extraction logfile from 16. June 2012, 14:42

Glen Hansard / Rhythm and Repose

Used drive : HL-DT-STDVDRAM GH20NS10 Adapter: 0 ID: 1

Read mode : SecureUtilize accurate stream : YesDefeat audio cache : YesMake use of C2 pointers : No

Read offset correction : 667Overread into Lead-In and Lead-Out : NoFill up missing offset samples with silence : YesDelete leading and trailing silent blocks : NoNull samples used in CRC calculations : YesUsed interface : Installed external ASPI interfaceGap handling : Appended to previous track

Used output format : User Defined EncoderSelected bitrate : 128 kBit/sQuality : HighAdd ID3 tag : YesCommand line compressor : C:\Program Files\Exact Audio Copy\flac.exeAdditional command line options : -V -5 -T "artist=%a" -T "title=%t" -T "album=%g" -T "date=%y" -T "tracknumber=%n" -T "genre=%m" %s

TOC of the extracted CD

Track | Start | Length | Start sector | End sector --------------------------------------------------------- 1 | 0:00.00 | 3:48.06 | 0 | 17105 2 | 3:48.06 | 5:30.04 | 17106 | 41859 3 | 9:18.10 | 4:43.47 | 41860 | 63131 4 | 14:01.57 | 3:55.06 | 63132 | 80762 5 | 17:56.63 | 5:50.55 | 80763 | 107067 6 | 23:47.43 | 3:28.04 | 107068 | 122671 7 | 27:15.47 | 4:17.22 | 122672 | 141968 8 | 31:32.69 | 3:00.29 | 141969 | 155497 9 | 34:33.23 | 4:33.70 | 155498 | 176042 10 | 39:07.18 | 3:51.69 | 176043 | 193436 11 | 42:59.12 | 3:48.25 | 193437 | 210561

Track 1

Filename C:\Users\Daniel\Music\Glen Hansard - Rhythm and Repose (2012) [FLAC]\01 - You Will Become.wav

Pre-gap length 0:00:02.00

Peak level 95.6 % Extraction speed 1.2 X Track quality 100.0 % Test CRC 5AA7834F Copy CRC 5AA7834F Track not present in AccurateRip database Copy OK

Track 2

Filename C:\Users\Daniel\Music\Glen Hansard - Rhythm and Repose (2012) [FLAC]\02 - Maybe Not Tonight.wav

Peak level 95.7 % Extraction speed 1.3 X Track quality 99.9 % Test CRC 9537340A Copy CRC 9537340A Track not present in AccurateRip database Copy OK

Track 3

Filename C:\Users\Daniel\Music\Glen Hansard - Rhythm and Repose (2012) [FLAC]\03 - Talking with the Wolves.wav

Peak level 96.3 % Extraction speed 1.6 X Track quality 100.0 % Test CRC 100CA031 Copy CRC 100CA031 Track not present in AccurateRip database Copy OK

Track 4

Filename C:\Users\Daniel\Music\Glen Hansard - Rhythm and Repose (2012) [FLAC]\04 - High Hope.wav

Peak level 98.8 % Extraction speed 1.4 X Track quality 99.9 % Test CRC B3C62B6F Copy CRC B3C62B6F Track not present in AccurateRip database Copy OK

Track 5

Filename C:\Users\Daniel\Music\Glen Hansard - Rhythm and Repose (2012) [FLAC]\05 - Bird of Sorrow.wav

Peak level 96.8 % Extraction speed 1.9 X Track quality 100.0 % Test CRC 7B822C05 Copy CRC 7B822C05 Track not present in AccurateRip database Copy OK

Track 6

Filename C:\Users\Daniel\Music\Glen Hansard - Rhythm and Repose (2012) [FLAC]\06 - The Storm, It's Coming.wav

Peak level 95.4 % Extraction speed 1.8 X Track quality 100.0 % Test CRC F3D6F209 Copy CRC F3D6F209 Track not present in AccurateRip database Copy OK

Track 7

Filename C:\Users\Daniel\Music\Glen Hansard - Rhythm and Repose (2012) [FLAC]\07 - Love Don't Leave Me Waiting.wav

Peak level 96.5 % Extraction speed 2.0 X Track quality 100.0 % Test CRC 899743A4 Copy CRC 899743A4 Track not present in AccurateRip database Copy OK

Track 8

Filename C:\Users\Daniel\Music\Glen Hansard - Rhythm and Repose (2012) [FLAC]\08 - What Are We Gonna Do.wav

Peak level 95.6 % Extraction speed 2.0 X Track quality 100.0 % Test CRC 62A16C40 Copy CRC 62A16C40 Track not present in AccurateRip database Copy OK

Track 9

Filename C:\Users\Daniel\Music\Glen Hansard - Rhythm and Repose (2012) [FLAC]\09 - Races.wav

Peak level 96.1 % Extraction speed 1.9 X Track quality 99.9 % Test CRC FD5A4F5A Copy CRC FD5A4F5A Track not present in AccurateRip database Copy OK

Track 10

Filename C:\Users\Daniel\Music\Glen Hansard - Rhythm and Repose (2012) [FLAC]\10 - Philander.wav

Peak level 96.1 % Extraction speed 2.2 X Track quality 100.0 % Test CRC 4FFB19F4 Copy CRC 4FFB19F4 Track not present in AccurateRip database Copy OK

Track 11

Filename C:\Users\Daniel\Music\Glen Hansard - Rhythm and Repose (2012) [FLAC]\11 - Song of Good Hope.wav

Peak level 93.4 % Extraction speed 2.3 X Track quality 100.0 % Test CRC AB520DE8 Copy CRC AB520DE8 Track not present in AccurateRip database Copy OK

None of the tracks are present in the AccurateRip database

No errors occurred

End of status report

==== Log checksum F7E1B6F68197BD22F67B24739B0540BACB40EA2A954BC0B1137C7299CC4789B8 ====
  
REM GENRE "Indie Folk"REM DATE 2012REM DISCID 980AF70BREM COMMENT "ExactAudioCopy v1.0b1"PERFORMER "Glen Hansard"TITLE "Rhythm and Repose"FILE "01 - You Will Become.wav" WAVE TRACK 01 AUDIO TITLE "You Will Become" PERFORMER "Glen Hansard" INDEX 01 00:00:00FILE "02 - Maybe Not Tonight.wav" WAVE TRACK 02 AUDIO TITLE "Maybe Not Tonight" PERFORMER "Glen Hansard" INDEX 01 00:00:00FILE "03 - Talking with the Wolves.wav" WAVE TRACK 03 AUDIO TITLE "Talking with the Wolves" PERFORMER "Glen Hansard" INDEX 01 00:00:00FILE "04 - High Hope.wav" WAVE TRACK 04 AUDIO TITLE "High Hope" PERFORMER "Glen Hansard" INDEX 01 00:00:00FILE "05 - Bird of Sorrow.wav" WAVE TRACK 05 AUDIO TITLE "Bird of Sorrow" PERFORMER "Glen Hansard" INDEX 01 00:00:00FILE "06 - The Storm, It's Coming.wav" WAVE TRACK 06 AUDIO TITLE "The Storm, It's Coming" PERFORMER "Glen Hansard" INDEX 01 00:00:00FILE "07 - Love Don't Leave Me Waiting.wav" WAVE TRACK 07 AUDIO TITLE "Love Don't Leave Me Waiting" PERFORMER "Glen Hansard" INDEX 01 00:00:00FILE "08 - What Are We Gonna Do.wav" WAVE TRACK 08 AUDIO TITLE "What Are We Gonna Do" PERFORMER "Glen Hansard" INDEX 01 00:00:00FILE "09 - Races.wav" WAVE TRACK 09 AUDIO TITLE "Races" PERFORMER "Glen Hansard" INDEX 01 00:00:00FILE "10 - Philander.wav" WAVE TRACK 10 AUDIO TITLE "Philander" PERFORMER "Glen Hansard" INDEX 01 00:00:00FILE "11 - Song of Good Hope.wav" WAVE TRACK 11 AUDIO TITLE "Song of Good Hope" PERFORMER "Glen Hansard" INDEX 01 00:00:00


Трекер:  [ 03-Июл-2012 17:48 ]

  

Скачать .torrent

Размер .torrent файла 18 KB


Размер: 220 MB
Хэш (hash) релиза: 7709e74a764ef8f2e6b2cd3a30edf2ed4f044b40

Еще никто не оставлял запись к записи скачать торрент Glen Hansard - Rhythm and Repose - 2012, FLAC . Будь первым!

!Обратная связь