Скачать через торрент музыку Bob Dylan - The 30th Anniversary Concert Celebration бесплатно без регистрации torrent

Если у вас наблюдаются проблемы со скриншотами, переходом по ссылками, скачиванием торрентов - проблемы в блокировщике рекламы AdBlock. #хорошегоДня!


Статистика раздачи
Размер:  966 MB   |    Зарегистрирован:  5 лет 4 месяца   |    .torrent скачан:  17 раз   |   
Раздают:  1  
   
Загрузка...
 
Автор Сообщение

Umakiro

avatar Umakiro


Bob Dylan / The 30th Anniversary Concert Celebration (2CD)

Жанр: Folk Rock
Страна-производитель диска: Austria
Год издания: 1993
Издатель (лейбл): Sony/Columbia
Номер по каталогу: COL 474000 2
Страна: USA
Аудиокодек: FLAC (*.flac)
Тип рипа: image+.cue
Битрейт аудио: lossless
Продолжительность: 148:24
Источник (релизер): Собственная коллекция
Наличие сканов в содержимом раздачи: да
Треклист:
CD1
1. Like A Rolling Stone, - John Mellencamp
2. Leopard-Skin Pill-Box Hat - John Mellencamp
3. Introduction by Kris Kristofferson
4. Blowin' In The Wind - Stevie Wonder
5. Foot Of Pride - Lou Reed
6. Masters Of War Eddie Vedder/Mike McCready
7. The Time They Are A-Changin' - Tracy Chapman
8. It Ain't Me, Babe - June Carter Cash/Johnny Cash
9. What Was It You Wanted - Willie Nelson
10. I'll Be Your Baby Tonight - Kris Kristofferson
11. Highway 61 Revisited - Johnny Winter
12. Seven Days - Ron Wood
13. Just Like A Woman - Richie Havens
14. When The Ship Comes In - The Clancy Brothers and Robbie O'Connell with special guest Tommy Makem
15. You Ain't Goin' Nowhere - Mary-Chapin Carpenter/Rosanne Cash/Shawn Colvin

CD2
1. Just Like A Woman - Neil Young
2. All Along The Watchtower - Neil Young
3. I Shall Be Released - Chrissie Hynde
4. Don't Think Twice, It's All Right - Eric Clapton
5. Emotionally Yours - The O'Jays
6. When I Paint My Masterpiece - The Band
7. Absolutely Sweet Marie - George Harrison
8. License To Kill - Tom Petty & The Heartbreakers
9. Rainy Day Women #12 & 35 - Tom Petty & The Heartbreakers
10. Mr. Tambourine Man - Roger McGuinn
11. It's Alright, Ma (I'm Only Bleeding) - Bob Dylan
12. My Back Pages - Bob Dylan, Roger McGuinn, Tom Petty, Neil Young, Eric Clapton, George Harrison
13. Knockin' On Heaven's Door - Everyone
14. Girl Of The North Country - Bob Dylan
  
CD1Exact Audio Copy V1.0 beta 3 from 29. August 2011

Отчёт EAC об извлечении, выполненном 1. июля 2012, 9:45

Bob Dylan / The 30th Anniversary Concert Celebration (CD1)

Дисковод: Optiarc DVD RW AD-7690H Adapter: 4 ID: 0

Режим чтения : ДостоверностьИспользование точного потока : ДаОтключение кэша аудио : ДаИспользование указателей C2 : Нет

Коррекция смещения при чтении : 48Способность читать области Lead-in и Lead-out : НетЗаполнение пропущенных сэмплов тишиной : ДаУдаление блоков с тишиной в начале и конце : НетПри вычислениях CRC использовались нулевые сэмплы : ДаИнтерфейс : Встроенный Win32-интерфейс для Win NT/2000

Выходной формат : Пользовательский кодировщикВыбранный битрейт : 1024 kBit/sКачество : ВысокийДобавление ID3-тега : НетУтилита сжатия : C:\Program Files (x86)\Exact Audio Copy\Flac\flac.exeДополнительные параметры : -V -8 -T "Date=%year%" -T "Genre=%genre%" %source%

TOC извлечённого CD

Трек | Старт | Длительность | Начальный сектор | Конечный сектор --------------------------------------------------------------------- 1 | 0:00.00 | 6:54.12 | 0 | 31061 2 | 6:54.12 | 4:19.70 | 31062 | 50556 3 | 11:14.07 | 0:55.68 | 50557 | 54749 4 | 12:10.00 | 8:53.62 | 54750 | 94786 5 | 21:03.62 | 8:47.65 | 94787 | 134376 6 | 29:51.52 | 5:06.30 | 134377 | 157356 7 | 34:58.07 | 3:01.18 | 157357 | 170949 8 | 37:59.25 | 3:50.05 | 170950 | 188204 9 | 41:49.30 | 5:47.12 | 188205 | 214241 10 | 47:36.42 | 3:04.50 | 214242 | 228091 11 | 50:41.17 | 5:05.63 | 228092 | 251029 12 | 55:47.05 | 5:26.30 | 251030 | 275509 13 | 61:13.35 | 5:50.00 | 275510 | 301759 14 | 67:03.35 | 4:24.00 | 301760 | 321559 15 | 71:27.35 | 3:52.20 | 321560 | 338979

Характеристики диапазона извлечения и сообщения об ошибках

Выбранный диапазон

Имя файла C:\Users\Толик\Desktop\Новая папка\Bob Dylan - The 30th Anniversary Concert Celebration (CD1).wav

Пиковый уровень 100.0 % Скорость извлечения 5.5 X Качество диапазона 100.0 % CRC теста 97CC11AA CRC копии 97CC11AA Копирование... OK

Ошибок не произошло

AccurateRip: сводка

Трек 1 : извлечено точно (доверие 4) [BAF5E250] (AR v2)Трек 2 : извлечено точно (доверие 4) [0312A35F] (AR v2)Трек 3 : извлечено точно (доверие 4) [83900214] (AR v2)Трек 4 : извлечено точно (доверие 4) [0369FAB3] (AR v2)Трек 5 : извлечено точно (доверие 4) [AD66B348] (AR v2)Трек 6 : извлечено точно (доверие 4) [C45F98F1] (AR v2)Трек 7 : извлечено точно (доверие 4) [9F8E639E] (AR v2)Трек 8 : извлечено точно (доверие 4) [8EF217F5] (AR v2)Трек 9 : извлечено точно (доверие 4) [A47F5012] (AR v2)Трек 10 : извлечено точно (доверие 4) [D3C08862] (AR v2)Трек 11 : извлечено точно (доверие 4) [751BAFCD] (AR v2)Трек 12 : извлечено точно (доверие 4) [4D996AAC] (AR v2)Трек 13 : извлечено точно (доверие 4) [517D2BFC] (AR v2)Трек 14 : извлечено точно (доверие 4) [356E4E65] (AR v2)Трек 15 : извлечено точно (доверие 4) [6E76031F] (AR v2)

Все треки извлечены точно

Конец отчёта

==== Контрольная сумма отчёта E45B9D80A32FA4A928A684D3F095F9FBD810A4D5118E7F36F57A9BC9AE8ABFA7 ====

CD2Exact Audio Copy V1.0 beta 3 from 29. August 2011

Отчёт EAC об извлечении, выполненном 1. июля 2012, 10:18

Bob Dylan / The 30th Anniversary Concert Celebration (CD2)

Дисковод: Optiarc DVD RW AD-7690H Adapter: 4 ID: 0

Режим чтения : ДостоверностьИспользование точного потока : ДаОтключение кэша аудио : ДаИспользование указателей C2 : Нет

Коррекция смещения при чтении : 48Способность читать области Lead-in и Lead-out : НетЗаполнение пропущенных сэмплов тишиной : ДаУдаление блоков с тишиной в начале и конце : НетПри вычислениях CRC использовались нулевые сэмплы : ДаИнтерфейс : Встроенный Win32-интерфейс для Win NT/2000

Выходной формат : Пользовательский кодировщикВыбранный битрейт : 1024 kBit/sКачество : ВысокийДобавление ID3-тега : НетУтилита сжатия : C:\Program Files (x86)\Exact Audio Copy\Flac\flac.exeДополнительные параметры : -V -8 -T "Date=%year%" -T "Genre=%genre%" %source%

TOC извлечённого CD

Трек | Старт | Длительность | Начальный сектор | Конечный сектор --------------------------------------------------------------------- 1 | 0:00.00 | 5:38.00 | 0 | 25349 2 | 5:38.00 | 6:20.50 | 25350 | 53899 3 | 11:58.50 | 4:26.07 | 53900 | 73856 4 | 16:24.57 | 6:09.70 | 73857 | 101601 5 | 22:34.52 | 5:43.30 | 101602 | 127356 6 | 28:18.07 | 4:23.05 | 127357 | 147086 7 | 32:41.12 | 4:43.40 | 147087 | 168351 8 | 37:24.52 | 4:53.03 | 168352 | 190329 9 | 42:17.55 | 4:44.37 | 190330 | 211666 10 | 47:02.17 | 4:10.13 | 211667 | 230429 11 | 51:12.30 | 6:21.30 | 230430 | 259034 12 | 57:33.60 | 4:39.35 | 259035 | 279994 13 | 62:13.20 | 5:38.27 | 279995 | 305371 14 | 67:51.47 | 5:12.13 | 305372 | 328784

Характеристики диапазона извлечения и сообщения об ошибках

Выбранный диапазон

Имя файла C:\Users\Толик\Desktop\Новая папка\Bob Dylan - The 30th Anniversary Concert Celebration (CD2).wav

Пиковый уровень 100.0 % Скорость извлечения 5.5 X Качество диапазона 100.0 % CRC теста 71275978 CRC копии 71275978 Копирование... OK

Ошибок не произошло

AccurateRip: сводка

Трек 1 : извлечено точно (доверие 4) [12BC0B46] (AR v2)Трек 2 : извлечено точно (доверие 4) [D8C8F251] (AR v2)Трек 3 : извлечено точно (доверие 4) [99C7C094] (AR v2)Трек 4 : извлечено точно (доверие 4) [6D5CB808] (AR v2)Трек 5 : извлечено точно (доверие 4) [6334C781] (AR v2)Трек 6 : извлечено точно (доверие 4) [10F683FF] (AR v2)Трек 7 : извлечено точно (доверие 4) [D5C616D9] (AR v2)Трек 8 : извлечено точно (доверие 4) [7E7064D7] (AR v2)Трек 9 : извлечено точно (доверие 4) [EE55B797] (AR v2)Трек 10 : извлечено точно (доверие 4) [307DDD04] (AR v2)Трек 11 : извлечено точно (доверие 4) [2D707183] (AR v2)Трек 12 : извлечено точно (доверие 4) [753C19D8] (AR v2)Трек 13 : извлечено точно (доверие 4) [CD1B5CDC] (AR v2)Трек 14 : извлечено точно (доверие 4) [0F28066A] (AR v2)

Все треки извлечены точно

Конец отчёта

==== Контрольная сумма отчёта 11CEFA0BDF95B253DB4D0C87E302A7BE0C3AAF070980163073295F8B5A42C8BA ====
  
CD1REM GENRE RockREM DATE 1992REM DISCID D211A70FREM COMMENT "ExactAudioCopy v1.0b3"CATALOG 5099747400025PERFORMER "Bob Dylan"TITLE "The 30th Anniversary Concert Celebration (CD1)"FILE "Bob Dylan - The 30th Anniversary Concert Celebration (CD1).flac" WAVE TRACK 01 AUDIO TITLE "John Mellencamp" PERFORMER "Like a Rolling Stone" INDEX 01 00:00:00 TRACK 02 AUDIO TITLE "John Mellencamp" PERFORMER "Leopard-skin Pill-box hat" INDEX 01 06:54:12 TRACK 03 AUDIO TITLE "Kris Kristofferson" PERFORMER "Introduction" INDEX 01 11:14:07 TRACK 04 AUDIO TITLE "Stevie Wonder" PERFORMER "Blowin' in the Wind" INDEX 01 12:10:00 TRACK 05 AUDIO TITLE "Lou Reed" PERFORMER "Foot of Pride" INDEX 01 21:03:62 TRACK 06 AUDIO TITLE "Eddie Vedder & Mike McCready" PERFORMER "Masters of War" INDEX 01 29:51:52 TRACK 07 AUDIO TITLE "Tracy Chapman" PERFORMER "The Times They Are A-changin'" INDEX 01 34:58:07 TRACK 08 AUDIO TITLE "Carter Cash, June & Johnny Cash" PERFORMER "It Ain't Me, Babe" INDEX 01 37:59:25 TRACK 09 AUDIO TITLE "Willie Nelson" PERFORMER "What Was It You Wanted" INDEX 01 41:49:30 TRACK 10 AUDIO TITLE "Kris Kristofferson" PERFORMER "I'll Be Your Baby Tonight" INDEX 01 47:36:42 TRACK 11 AUDIO TITLE "Johnny Winter" PERFORMER "Highway 61 Revisited" INDEX 01 50:41:17 TRACK 12 AUDIO TITLE "Ron Wood" PERFORMER "Seven Days" INDEX 01 55:47:05 TRACK 13 AUDIO TITLE "Richie Havens" PERFORMER "Just Like a Woman" INDEX 01 61:13:35 TRACK 14 AUDIO TITLE "The Clancy Brothers & Robbie O'Connell + Tommy Makem" PERFORMER "When the Ship Comes In" INDEX 01 67:03:35 TRACK 15 AUDIO TITLE "Mary Carpenter + Chapin & Rosanne Cash + Shawn Colvin" PERFORMER "You Ain't Goin' Nowhere" INDEX 01 71:27:35

CD2REM GENRE RockREM DATE 1992REM DISCID C3111F0EREM COMMENT "ExactAudioCopy v1.0b3"CATALOG 5099747400025PERFORMER "Bob Dylan"TITLE "The 30th Anniversary Concert Celebration (CD2)"FILE "Bob Dylan - The 30th Anniversary Concert Celebration (CD2).flac" WAVE TRACK 01 AUDIO TITLE "Just Like Tom Thumb's Blues" PERFORMER "Neil Young" INDEX 01 00:00:00 TRACK 02 AUDIO TITLE "All Along The Watchtower" PERFORMER "Neil Young" INDEX 01 05:38:00 TRACK 03 AUDIO TITLE "I Shall Be Released" PERFORMER "Chrissie Hynde" INDEX 01 11:58:50 TRACK 04 AUDIO TITLE "Don't Think Twice, It's All Right" PERFORMER "Eric Clapton" INDEX 01 16:24:57 TRACK 05 AUDIO TITLE "Emotionally Yours" PERFORMER "The O'Jays" INDEX 01 22:34:52 TRACK 06 AUDIO TITLE "When I Paint My Masterpiece" PERFORMER "The Band" INDEX 01 28:18:07 TRACK 07 AUDIO TITLE "Absolutely Sweet Marie" PERFORMER "George Harrison" INDEX 01 32:41:12 TRACK 08 AUDIO TITLE "License To Kill" PERFORMER "Tom Petty & The Heartbreakers" INDEX 01 37:24:52 TRACK 09 AUDIO TITLE "Rainy Day Women #12 & 35" PERFORMER "Tom Petty & The Heartbreakers" INDEX 01 42:17:55 TRACK 10 AUDIO TITLE "Mr. Tambourine Man" PERFORMER "Roger McGuinn" INDEX 01 47:02:17 TRACK 11 AUDIO TITLE "It's Alright, Ma (I'm Only Bleeding)" PERFORMER "Bob Dylan" INDEX 01 51:12:30 TRACK 12 AUDIO TITLE "My Back Pages" PERFORMER "Bob Dylan, Roger McGuinn, Tom Petty, Neil Young, Eric Clapton, George Harrison" INDEX 01 57:33:60 TRACK 13 AUDIO TITLE "Knockin' On Heaven's Door" PERFORMER "Everyone" INDEX 01 62:13:20 TRACK 14 AUDIO TITLE "Girl Of The North Country" PERFORMER "Bob Dylan" INDEX 01 67:51:47
•The Band – Performer
•Jerry Barnes – Choir, Chorus
•Katreese Barnes – Choir, Chorus
•Richard Bell – Accordion
•Mike Campbell – Guitar
•Mary Chapin Carpenter – Guitar, Vocals, Performer
•John Cascella – Accordion, Keyboards
•Johnny Cash – Vocals, Performer
•June Carter Cash– Vocals, Performer
•Rosanne Cash – Guitar, Vocals, Performer
•Tracy Chapman – Guitar, Vocals, Performer
•The Clancy Brothers – Performer
•Bobby Clancy – Percussion, Vocals
•Liam Clancy – Guitar, Vocals
•Paddy Clancy – Harmonica, Vocals
•Eric Clapton – Guitar, Vocals, Performer
•Leotis Clyburn – Choir, Chorus
•Dennis Collins – Background Vocals, Choir, Chorus
•Shawn Colvin – Guitar, Vocals, Performer
•Steve Cropper – Guitar
•Sheryl Crow – Background Vocals, Choir, Chorus
•Rick Danko of The Band – Guitar, Bass (Electric), Vocals
•Don DeVito – Producer
•Donald "Duck" Dunn – Bass
•Bob Dylan – Guitar, Vocals, Performer
•Howie Epstein – Bass
•Ron Fair – Piano
•Anton Fig – Percussion, Drums
•Lisa Germano – Violin
•Nanci Griffith – Guitar, Vocals, Performer (VHS but not CD version)
•David Grissom – Guitar
•George Harrison – Guitar, Vocals, Performer
•Richie Havens – Guitar, Vocals, Performer
•Levon Helm of The Band – Mandolin, Vocals
•Carolyn Hester Vocals, Performer
•Cissy Houston – Choir, Chorus
•Garth Hudson of The Band – Accordion
•Chrissie Hynde – Guitar, Vocals, Performer
•Darryl Keith John – Background Vocals
•Booker T. Jones III – Organ
•Jim Keltner – Drums
•Brenda King – Background Vocals, Choir, Chorus
•Curtis King – Background Vocals, Choir, Chorus
•Al Kooper – Organ
•Kris Kristofferson – Guitar, Vocals, Performer
•Eddie LeVert – Vocals
•Tommy Makem – Banjo, Vocals, Performer
•Kerry Marx – Guitar
•Mike McCready – Guitar, Performer
•Roger McGuinn – Guitar, Vocals, Performer
•Sue Medley – Background Vocals
•John Mellencamp – Vocals, Performer
•Willie Nelson – Guitar, Vocals, Performer
•Robbie O'Connell – Guitar, Vocals, Performer
•Christine Ohlman – Background Vocals, Choir, Chorus
•The O'Jays – Performer
•Pat Peterson – Percussion, Background Vocals
•Tom Petty & the Heartbreakers – Performer
•Tom Petty – Guitar, Vocals, Performer
•Mickey Raphael – Harmonica
•Lou Reed – Guitar, Vocals, Performer
•Jeff Rosen – Producer
•G. E. Smith– Musical Director, Guitar, Mandolin
•Sam Strain – Vocals
•Benmont Tench – Organ
•David Thoener – Mixing
•George Thorogood– Guitar
•Eddie Vedder – Vocals, Performer
•Kevin Wall – Executive Producer
•Mike Wanchic – Guitar
•Don Was – Bass
•Jim Weider – Guitar, Vocals
•David Wild – Liner Notes
•Walter Williams – Vocals
•Johnny Winter – Guitar, Vocals, Performer
•Stevie Wonder – Harmonica, Piano, Vocals, Performer
•Ronnie Wood – Guitar, Vocals, Performer
•Neil Young – Guitar, Vocals, Performer
•Reggie Young – Guitar
•Sophie B. Hawkins – Vocals, Performer
•Lou Volpano – Contract Management


Трекер:  [ 03-Июл-2012 17:48 ]

  

Скачать .torrent

Размер .torrent файла 20 KB


Размер: 966 MB
Хэш (hash) релиза: 817f2081b0a5cb8c9038a283521845cec6e93b79

Еще никто не оставлял запись к записи скачать торрент Bob Dylan - The 30th Anniversary Concert Celebration . Будь первым!

!Обратная связь