Скачать через торрент музыку Emerson, Lake & Palmer бесплатно без регистрации torrent

Если у вас наблюдаются проблемы со скриншотами, переходом по ссылками, скачиванием торрентов - проблемы в блокировщике рекламы AdBlock. #хорошегоДня!


Статистика раздачи
Размер:  273 MB   |    Зарегистрирован:  5 лет 3 месяца   |    .torrent скачан:  32 раза   |   
Раздают:  1  
   
Загрузка...
 
Автор Сообщение

Umakiro

avatar Umakiro


Emerson, Lake & Palmer / Pictures At An Exhibition
(Japan 20 bit K2 Super Coding) SAMPLE
Жанр: Progressive Rock
Страна-производитель диска: Japan
Год издания: 1994
Дата издания: 94.9.21
Издатель (лейбл): Victory Music, Inc.
Номер по каталогу: VICP-5444
Matrix number: VICP-5444-1- 1F V
Press number: SAMPLE=Promotional recording
Страна: England
Аудиокодек: FLAC (*.flac)
Тип рипа: image+.cue (log&cue embedded)
Битрейт аудио: lossless
Продолжительность: 38:07
Источник (релизер): Личная коллекция
Наличие сканов в содержимом раздачи: да (300 dpi PNG)

Треклист:
01. [1:57] Promenade (Part 1)
02. [4:16] The Gnome
03. [1:23] Promenade (Part 2)
04. [4:40] The Sage
05. [2:32] The Old Castle
06. [4:21] Blues Variation
07. [1:29] Promenade (Part 3)
08. [1:13] The Hut of Baba Yaga (Part 1)
09. [4:09] The Curse of Baba Yaga
10. [1:06] The Hut of Baba Yaga (Part 2)
11. [6:27] The Great Gates of Kiev
12. [4:34] Nutrocker
  
Exact Audio Copy V1.0 beta 3 from 29. August 2011

EAC extraction logfile from 25. June 2012, 7:00

Emerson, Lake & Palmer / Pictures At An Exhibition (Victory Music, Inc., Japan, VICP-5444)

Used drive : PLEXTOR DVDR PX-880SA Adapter: 5 ID: 0

Read mode : SecureUtilize accurate stream : YesDefeat audio cache : YesMake use of C2 pointers : No

Read offset correction : 6Overread into Lead-In and Lead-Out : NoFill up missing offset samples with silence : YesDelete leading and trailing silent blocks : NoNull samples used in CRC calculations : YesUsed interface : Native Win32 interface for Win NT & 2000

Used output format : User Defined EncoderSelected bitrate : 1024 kBit/sQuality : HighAdd ID3 tag : NoCommand line compressor : C:\Program Files\FLAC\flac.exeAdditional command line options : -8 -V %source% -o %dest%

TOC of the extracted CD

Track | Start | Length | Start sector | End sector --------------------------------------------------------- 1 | 0:00.37 | 1:57.30 | 37 | 8841 2 | 1:57.67 | 4:16.25 | 8842 | 28066 3 | 6:14.17 | 1:22.70 | 28067 | 34286 4 | 7:37.12 | 4:40.00 | 34287 | 55286 5 | 12:17.12 | 2:32.10 | 55287 | 66696 6 | 14:49.22 | 4:20.65 | 66697 | 86261 7 | 19:10.12 | 1:28.70 | 86262 | 92931 8 | 20:39.07 | 1:12.38 | 92932 | 98369 9 | 21:51.45 | 4:09.02 | 98370 | 117046 10 | 26:00.47 | 1:06.33 | 117047 | 122029 11 | 27:07.05 | 6:26.65 | 122030 | 151044 12 | 33:33.70 | 4:33.70 | 151045 | 171589

Range status and errors

Selected range

Filename C:\Mysterons [Skull_of_Sheeps]\Emerson, Lake & Palmer ‎[1972] Pictures At An Exhibition (Japan, VICP-5444)\Emerson, Lake & Palmer - Pictures At An Exhibition (VICP-5444).wav

Peak level 100.0 % Extraction speed 7.5 X Range quality 100.0 % Test CRC 842CF75D Copy CRC 842CF75D Copy OK

No errors occurred

AccurateRip summary

Track 1 not present in databaseTrack 2 not present in databaseTrack 3 not present in databaseTrack 4 not present in databaseTrack 5 not present in databaseTrack 6 not present in databaseTrack 7 not present in databaseTrack 8 not present in databaseTrack 9 not present in databaseTrack 10 not present in databaseTrack 11 not present in databaseTrack 12 not present in database

None of the tracks are present in the AccurateRip database

End of status report

---- CUETools DB Plugin V2.1.3

[CTDB TOCID: 01e6KyeO_YlZyg4bt6Vx_KriV8A-] disk not present in database, Submit result: discs with pregaps not supported in this protocol version
  
[CUETools log; Date: 25.06.2012 7:03:32; Version: 2.1.4]Pregap length 00:00:37.[CTDB TOCID: 01e6KyeO_YlZyg4bt6Vx_KriV8A-] disk not present in database.[AccurateRip ID: 000fc12d-0094137d-9508ef0c] disk not present in database.

Track Peak [ CRC32 ] [W/O NULL] [ LOG ] -- 100,0 [842CF75D] [0EA690F4] CRC32 01 83,6 [21F307DE] [35046DA0] 02 96,4 [AC181E40] [3EC0EFD9] 03 14,8 [409A077F] [795ED96D] 04 82,1 [F47D4DA0] [EE9C6DF2] 05 89,9 [BB30BF7C] [72DE76B5] 06 100,0 [ECCA9246] [7D235EAF] 07 97,6 [8A6779E3] [D8680836] 08 96,7 [975D8595] [22BD32E8] 09 100,0 [6722D02F] [F6BEC303] 10 98,7 [533F6DE8] [40E14D8C] 11 99,0 [BD7B758C] [8C3D588F] 12 94,8 [4087F1EB] [F520ED1A]
  
foobar2000 1.0.3 / Dynamic Range Meter 1.1.1log date: 2012-06-25 07:10:23

--------------------------------------------------------------------------------Analyzed: Emerson, Lake & Palmer / Pictures At An Exhibition (Victory Music, Inc., Japan, VICP-5444)--------------------------------------------------------------------------------

DR Peak RMS Duration Track--------------------------------------------------------------------------------DR12 -1.55 dB -16.59 dB 1:57 ?-Promenade (Part 1)DR11 -0.31 dB -14.68 dB 4:16 ?-The GnomeDR13 -16.59 dB -34.77 dB 1:23 ?-Promenade (Part 2)DR16 -1.71 dB -27.68 dB 4:40 ?-The SageDR11 -0.92 dB -15.15 dB 2:32 ?-The Old CastleDR11 0.00 dB -13.76 dB 4:21 ?-Blues VariationDR11 -0.21 dB -13.45 dB 1:29 ?-Promenade (Part 3)DR11 -0.28 dB -13.02 dB 1:13 ?-The Hut of Baba Yaga (Part 1)DR11 0.00 dB -12.98 dB 4:09 ?-The Curse of Baba YagaDR11 -0.11 dB -12.53 dB 1:06 ?-The Hut of Baba Yaga (Part 2)DR11 -0.08 dB -14.45 dB 6:27 ?-The Great Gates of KievDR12 -0.46 dB -15.80 dB 4:34 ?-Nutrocker--------------------------------------------------------------------------------

Number of tracks: 12Official DR value: DR12

Samplerate: 44100 HzChannels: 2Bits per sample: 16Bitrate: 789 kbpsCodec: FLAC================================================================================
Album on worthpoint.com

Трекер:  [ 03-Июл-2012 17:50 ]

  

Скачать .torrent

Размер .torrent файла 12 KB


Размер: 273 MB
Хэш (hash) релиза: 1840e179a45d56c47836322fb0fff2438bbcf76d

Торренты, похожие на Emerson, Lake & Palmer скачать торрент

Форум Название Автор Размер S L Добавлен
Rосk | Mеtаl | Аltеrnаtivе, Рunk, Indереndеnt (losslеss) ·· (Progressive) Emerson, Lake & Palmer - Emerson, Lake & Palmer - 1970 {Reissue 1987}, FLAC (image+.cue), lossless Galfimbul 262983446251 MB 0 0 1378218758

17:32

3-Сен-13

Rосk | Mеtаl | Аltеrnаtivе, Рunk, Indереndеnt (losslеss) ·· (Progressive) Emerson, Lake & Palmer - Emerson, Lake & Palmer (Japan SHM-CD) - 2008, FLAC (tracks+.cue), lossless Galfimbul 363642406347 MB 0 0 1297858884

15:21

16-Фев-11

Rосk | Mеtаl | Аltеrnаtivе, Рunk, Indереndеnt (losslеss) ·· (Progressive Rock) Emerson, Lake & Palmer - The Best Of (Target CD / ATLANTIC 19283-2 (EUROPE: 250 757) / 198?) - 1980, FLAC (image+.cue), lossless Galfimbul 262908161251 MB 0 0 1369513848

23:30

25-Май-13

Rосk | Mеtаl | Аltеrnаtivе, Рunk, Indереndеnt (losslеss) ·· (Progressive Rock) Emerson, Lake & Palmer - Tarkus (Manticore / Ariola 258 171 / Germany 1987) - 1971, FLAC (image+.cue), lossless Galfimbul 237582164227 MB 0 0 1362366459

06:07

4-Мар-13

Зарубежный Rock ·· (Progressive & Art-Rock) Emerson, Lake & Palmer ELP - Коллекция (2011 Remastered Series Sony Music, 9+1 Albums, 11CD, 1970-1994) - 2011, FLAC (image+.cue), lossless Galfimbul 41895392803.9 GB 0 0 1350202740

11:19

14-Окт-12

Зарубежный Rock ·· (Progressive & Art-Rock) Emerson, Lake & Palmer - Brain Salad Surgery (1973, Remaster, Sony Music, 88697830132) - 2011, MP3, 320 kbps Galfimbul 194042653185 MB 0 0 1349007360

15:16

30-Сен-12

Зарубежный Rock ·· (Progressive & Art-Rock) Emerson, Lake & Palmer - Pictures At An Exhibition (1971, Sony Music, 886978301123) - 2011, MP3, 320 kbps Galfimbul 189060496180 MB 0 0 1348063560

17:06

19-Сен-12

Зарубежный Rock ·· (Progressive & Art-Rock) Emerson, Lake & Palmer - Trilogy (1972, Sony Music, 886978301222) - 2011, MP3, 320 kbps Galfimbul 170722302163 MB 0 0 1348063560

17:06

19-Сен-12

Зарубежный Rock ·· (Progressive & Art-Rock) Emerson, Lake & Palmer - Tarkus (1971, 2CD+DVD-A Deluxe Box Set, Sony Music, 88691937962) - 2012, MP3, 320 kbps Galfimbul 397754498379 MB 0 0 1348063560

17:06

19-Сен-12

Зарубежный Rock ·· (Progressive Rock) Emerson, Lake & Palmer - Tarkus (1971), Trilogy (1972) - 1994-1995 (MFSL), FLAC (image+.cue), lossless Galfimbul 639722466610 MB 0 0 1346954520

21:02

6-Сен-12

Зарубежный Rock ·· (Progressive Rock) Emerson, Lake & Palmer - Brain Salad Surgery (1973) (Deluxe 3CD Ed.) - 2008, FLAC (tracks+.cue), lossless Centner1 10691503001020 MB 0 0 1340724480

18:28

26-Июн-12

Rосk | Mеtаl | Аltеrnаtivе, Рunk, Indереndеnt (losslеss) ·· (Progressive Rock) Emerson, Lake & Palmer - The Best Of - 1984, FLAC (image+.cue), lossless Umakiro 376752369359 MB 0 0 1338820860

17:41

4-Июн-12

Rосk | Mеtаl | Аltеrnаtivе, Рunk, Indереndеnt (losslеss) ·· (Pop-Rock, Jazz, Rock) VA - 100 Huge Hits Of The 60's & 70's (4CD) - 2007 (The Kinks, Marmalade, John Leyton, Joe Brown, Fleetwood Mac, Status Quo, David Parton, Emerson, Lake & Palmer, Atomic Rooster & more) FLAC (image+.cue) Galfimbul 16762862381.56 GB 0 0 1334996100

11:15

21-Апр-12

Rосk | Mеtаl | Аltеrnаtivе, Рunk, Indереndеnt (losslеss) ·· (Progressive & Art-Rock) Emerson, Lake & Palmer (ELP) - The Show That Never Ends, 2CD - 2001, FLAC (tracks+.cue), lossless Galfimbul 620223770591 MB 0 0 1323548534

23:22

10-Дек-11

Rосk | Mеtаl | Аltеrnаtivе, Рunk, Indереndеnt (mр3) ·· (Progressive & Art-Rock) Emerson, Lake & Palmer (ELP) - Дискография-2 1980-2011 (18 Compilation & Unofficial Bootleg Albums, 45 CD), MP3, 192-320 kbps Galfimbul 56025885605.22 GB 0 0 1322735059

13:24

1-Дек-11

Rосk | Mеtаl | Аltеrnаtivе, Рunk, Indереndеnt (mр3) ·· (Progressive & Art-Rock) Emerson, Lake & Palmer/Powell (ELP) - Дискография-1 1970-2011 (32 Studio & Live Albums, 77 CD), MP3, 192-320 kbps Galfimbul 102540628169.55 GB 0 0 1322735058

13:24

1-Дек-11

Rосk | Mеtаl | Аltеrnаtivе, Рunk, Indереndеnt (mр3) ·· (Progressive & Art-Rock) Emerson, Lake & Palmer (ELP) - 17 Albums Collection 1970- 2011 (24bit Remastered K2HD, MFSL Ultradisc II, Deluxe Edition & Others 33 CD), MP3, 320 kbps Galfimbul 51634118964.81 GB 0 0 1321407724

04:42

16-Ноя-11

Rосk | Mеtаl | Аltеrnаtivе, Рunk, Indереndеnt (mр3) ·· (Progressive & Art-Rock) Emerson, Lake & Palmer (ELP) - 13 Albums Collection 1970- 2010 (24bit Remastered K2HD, MFSL Ultradisc II, Deluxe Edition & Others 24 CD), MP3, 320 kbps Galfimbul 36586451413.41 GB 0 0 1320850876

18:01

9-Ноя-11

Зарубежный Rock (video) ·· Emerson, Lake & Palmer - Live in Montreux [1997 г., Progressive rock, Blu-ray 1080i] Galfimbul 1571771277214.64 GB 0 0 1311921179

09:32

29-Июл-11

Еще никто не оставлял запись к записи скачать торрент Emerson, Lake & Palmer . Будь первым!

!Обратная связь