Скачать через торрент музыку Time - Before There Was...TIME - 1968 бесплатно без регистрации torrent

Если у вас наблюдаются проблемы со скриншотами, переходом по ссылками, скачиванием торрентов - проблемы в блокировщике рекламы AdBlock. #хорошегоДня!


Статистика раздачи
Размер:  223 MB   |    Зарегистрирован:  5 лет 1 месяц   |    .torrent скачан:  15 раз   |   
Раздают:  1  
   
Загрузка...
 
Автор Сообщение

Umakiro

avatar Umakiro


Time / Before There Was...TIME
Жанр: Psychedelic Rock, Psychedelic Folk, Art-Rock, Acid
Страна-производитель диска: Germany
Год издания: 1968 (2005)
Издатель (лейбл): Shadoks Music
Номер по каталогу: CD 054
Страна: USA
Аудиокодек: FLAC (*.flac)
Тип рипа: tracks+.cue
Битрейт аудио: lossless
Продолжительность: 34:05
Источник (релизер): блог (marios)
Наличие сканов в содержимом раздачи: да

Треклист:
1. A Song for You - 5:37
2. Kemp's Jig - 0:44
3. Introductory Lines - 3:26
4. Sad Benjamin - 4:29
5. Lily Has a Rose - 2:45
6. At Shadow's Eye - 3:17
7. Green Fields - 1:51
8. Waking - 2:50
9. Ma's Pan - 1:42
10. Dover Beach - 3:25
11. Elin Experience - 4:24.
|| Sad Benjamin || Dover Beach || Introductory Lines || rateyourmusic || psychedelisme ||
  
Exact Audio Copy V0.99 prebeta 4 from 23. January 2008

EAC extraction logfile from 26. January 2009, 20:19

Time / Before There Was...

Used drive : HL-DT-STDVD+-RW GSA-H21N Adapter: 0 ID: 0

Read mode : SecureUtilize accurate stream : YesDefeat audio cache : YesMake use of C2 pointers : No

Read offset correction : 0Overread into Lead-In and Lead-Out : NoFill up missing offset samples with silence : YesDelete leading and trailing silent blocks : NoNull samples used in CRC calculations : YesUsed interface : Installed external ASPI interfaceGap handling : Appended to previous track

Used output format : User Defined EncoderSelected bitrate : 1024 kBit/sQuality : HighAdd ID3 tag : NoCommand line compressor : C:\Program Files\eac-0.99pb4\Flac\flac.exeAdditional command line options : -8 -V -T "ARTIST=%a" -T "TITLE=%t" -T "ALBUM=%g" -T "DATE=%y" -T "TRACKNUMBER=%n" -T "GENRE=%m" -T "COMMENT=Rip by Rob" %s

TOC of the extracted CD

Track | Start | Length | Start sector | End sector --------------------------------------------------------- 1 | 0:00.00 | 5:34.30 | 0 | 25079 2 | 5:34.30 | 0:40.11 | 25080 | 28090 3 | 6:14.41 | 3:24.12 | 28091 | 43402 4 | 9:38.53 | 4:26.69 | 43403 | 63421 5 | 14:05.47 | 2:42.70 | 63422 | 75641 6 | 16:48.42 | 3:14.30 | 75642 | 90221 7 | 20:02.72 | 1:49.61 | 90222 | 98457 8 | 21:52.58 | 2:47.39 | 98458 | 111021 9 | 24:40.22 | 1:39.49 | 111022 | 118495 10 | 26:19.71 | 3:22.21 | 118496 | 133666 11 | 29:42.17 | 4:22.55 | 133667 | 153371

Track 1

Filename C:\EAC\01 - A Song For You.wav

Pre-gap length 0:00:02.00

Peak level 96.6 % Track quality 99.9 % Test CRC 67E423E2 Copy CRC 67E423E2 Copy OK

Track 2

Filename C:\EAC\02 - Kempґs Gig.wav

Pre-gap length 0:00:02.00

Peak level 64.4 % Track quality 100.0 % Test CRC 992C2D61 Copy CRC 992C2D61 Copy OK

Track 3

Filename C:\EAC\03 - Introductory Lines.wav

Pre-gap length 0:00:02.00

Peak level 96.5 % Track quality 100.0 % Test CRC 8AA3F20D Copy CRC 8AA3F20D Copy OK

Track 4

Filename C:\EAC\04 - Sad Benjamin.wav

Pre-gap length 0:00:02.00

Peak level 96.5 % Track quality 100.0 % Test CRC C1DA3575 Copy CRC C1DA3575 Copy OK

Track 5

Filename C:\EAC\05 - Lily Has A Rose.wav

Pre-gap length 0:00:02.00

Peak level 96.5 % Track quality 100.0 % Test CRC C250FFDE Copy CRC C250FFDE Copy OK

Track 6

Filename C:\EAC\06 - Art Shadowґs Eye.wav

Pre-gap length 0:00:02.00

Peak level 96.5 % Track quality 100.0 % Test CRC 52A4894D Copy CRC 52A4894D Copy OK

Track 7

Filename C:\EAC\07 - Green Fields.wav

Pre-gap length 0:00:02.00

Peak level 71.7 % Track quality 100.0 % Test CRC DB8F6C67 Copy CRC DB8F6C67 Copy OK

Track 8

Filename C:\EAC\08 - Waking.wav

Pre-gap length 0:00:02.00

Peak level 96.5 % Track quality 100.0 % Test CRC F9B3EB50 Copy CRC F9B3EB50 Copy OK

Track 9

Filename C:\EAC\09 - Maґs Pan.wav

Pre-gap length 0:00:02.00

Peak level 96.6 % Track quality 100.0 % Test CRC 630670EC Copy CRC 630670EC Copy OK

Track 10

Filename C:\EAC\10 - Dover Beach.wav

Pre-gap length 0:00:02.00

Peak level 96.5 % Track quality 100.0 % Test CRC FB04A0DA Copy CRC FB04A0DA Copy OK

Track 11

Filename C:\EAC\11 - Elin Experience.wav

Pre-gap length 0:00:02.00

Peak level 96.6 % Track quality 100.0 % Test CRC FB508FED Copy CRC FB508FED Copy OK

No errors occurred

End of status report
  
REM GENRE "Psychedelic Acid Rock"REM DATE 1968REM DISCID 8207FC0BREM COMMENT "ExactAudioCopy v0.99pb4"PERFORMER "Time"TITLE "Before There Was..."FILE "01 - A Song For You.wav" WAVE TRACK 01 AUDIO TITLE "A Song For You" PERFORMER "Time" INDEX 01 00:00:00 TRACK 02 AUDIO TITLE "Kempґs Gig" PERFORMER "Time" INDEX 00 05:32:30FILE "02 - Kempґs Gig.wav" WAVE INDEX 01 00:00:00 TRACK 03 AUDIO TITLE "Introductory Lines" PERFORMER "Time" INDEX 00 00:38:11FILE "03 - Introductory Lines.wav" WAVE INDEX 01 00:00:00 TRACK 04 AUDIO TITLE "Sad Benjamin" PERFORMER "Time" INDEX 00 03:22:12FILE "04 - Sad Benjamin.wav" WAVE INDEX 01 00:00:00 TRACK 05 AUDIO TITLE "Lily Has A Rose" PERFORMER "Time" INDEX 00 04:24:69FILE "05 - Lily Has A Rose.wav" WAVE INDEX 01 00:00:00 TRACK 06 AUDIO TITLE "Art Shadowґs Eye" PERFORMER "Time" INDEX 00 02:40:70FILE "06 - Art Shadowґs Eye.wav" WAVE INDEX 01 00:00:00 TRACK 07 AUDIO TITLE "Green Fields" PERFORMER "Time" INDEX 00 03:12:30FILE "07 - Green Fields.wav" WAVE INDEX 01 00:00:00 TRACK 08 AUDIO TITLE "Waking" PERFORMER "Time" INDEX 00 01:47:61FILE "08 - Waking.wav" WAVE INDEX 01 00:00:00 TRACK 09 AUDIO TITLE "Maґs Pan" PERFORMER "Time" INDEX 00 02:45:39FILE "09 - Maґs Pan.wav" WAVE INDEX 01 00:00:00 TRACK 10 AUDIO TITLE "Dover Beach" PERFORMER "Time" INDEX 00 01:37:49FILE "10 - Dover Beach.wav" WAVE INDEX 01 00:00:00 TRACK 11 AUDIO TITLE "Elin Experience" PERFORMER "Time" INDEX 00 03:20:21FILE "11 - Elin Experience.wav" WAVE INDEX 01 00:00:00
  
[CUETools log; Date: 01.07.2012 15:14:58; Version: 2.1.1][CTDB TOCID: UxQKD3ynVqOGlQtiNZkWP7wP._o-] disk not present in database.[AccurateRip ID: 000e5b4b-0079f761-8207fc0b] found.Track [ CRC ] Status 01 [bb2e2ab1] (0/1) No match 02 [43189f5b] (0/1) No match 03 [c1179e52] (0/1) No match 04 [aa56398f] (0/1) No match 05 [2152f8b3] (0/1) No match 06 [4c9f4451] (0/1) No match 07 [2bc320c5] (0/1) No match 08 [b602828e] (0/1) No match 09 [2eaa6fcb] (0/1) No match 10 [e2e7b6bc] (0/1) No match 11 [5bcff5d5] (0/1) No matchOffsetted by 102: 01 [e3fd6b9d] (1/1) Accurately ripped 02 [d0717a75] (1/1) Accurately ripped 03 [271f0a10] (1/1) Accurately ripped 04 [06fc1c1f] (1/1) Accurately ripped 05 [79646723] (1/1) Accurately ripped 06 [239012d3] (1/1) Accurately ripped 07 [1d03e9eb] (1/1) Accurately ripped 08 [26b397c8] (1/1) Accurately ripped 09 [8ab80863] (1/1) Accurately ripped 10 [9e4f0d9a] (1/1) Accurately ripped 11 [61083c2c] (1/1) Accurately ripped

Track Peak [ CRC32 ] [W/O NULL] [ LOG ] -- 96,6 [99EC9817] [97F0D31E] 01 96,5 [67E423E2] [A253FBBB] CRC32 02 64,4 [992C2D61] [D8604140] CRC32 03 96,5 [8AA3F20D] [99E6597E] CRC32 04 96,5 [C1DA3575] [F2914B2F] CRC32 05 96,5 [C250FFDE] [AC2E60A7] CRC32 06 96,5 [52A4894D] [5C7DE0BE] CRC32 07 71,7 [DB8F6C67] [C6C6AA15] CRC32 08 96,5 [F9B3EB50] [253D0449] CRC32 09 96,6 [630670EC] [3035DFBB] CRC32 10 96,5 [FB04A0DA] [47F1D985] CRC32 11 96,6 [FB508FED] [AC77DF85] CRC32

-----------------------

DON'T MODIFY THIS FILE

-----------------------

PERFORMER: auCDtect Task Manager, ver. 1.5.1RC4 build 1.5.1.5Copyright (c) 2008-2010 y-soft. All rights reservedhttp://y-soft.org

ANALYZER: auCDtect: CD records authenticity detector, version 0.8.2Copyright (c) 2004 Oleg Berngardt. All rights reserved.Copyright (c) 2004 Alexander Djourik. All rights reserved.

FILE: 01 - A Song For You.flac Size: 31770917 Hash: 9AEFD8463696660E6B63AF999FE61E35 Accuracy: -m0 Conclusion: CDDA 100% Signature: 81572FFE5EDD2779153418A962A1C5E1B493AA37FILE: 11 - Elin Experience.flac Size: 22562419 Hash: 27BD90A24FB17B28A96716FFE6B566DB Accuracy: -m0 Conclusion: CDDA 100% Signature: 588C26096087A9A326F6B82287ECC37808F68569FILE: 10 - Dover Beach.flac Size: 18081778 Hash: C6ED4C32A28AAFDB28BB0F70A3357AEF Accuracy: -m0 Conclusion: CDDA 100% Signature: DE559A6B6B7D6CC2B706E7F37CFCA7C923E9D532FILE: 09 - Maяs Pan.flac Size: 8705123 Hash: 9AE623B77CC962D258E458D9A2E1C131 Accuracy: -m0 Conclusion: CDDA 100% Signature: 59CCA0111950FBAC884D85C6359BC59D2C3E6F70FILE: 08 - Waking.flac Size: 14047607 Hash: 1B2159E20F07F0C1231A6109E2E60498 Accuracy: -m0 Conclusion: CDDA 100% Signature: 4C0FC6C001EB962B7F2B6058EEEB3C85C98A9F56FILE: 07 - Green Fields.flac Size: 8904011 Hash: B756CB570FC1F744D0CC75E75A65F7B8 Accuracy: -m0 Conclusion: CDDA 99% Signature: 92FE180501E045E11DA77F997F5841BFAA77F71EFILE: 06 - Art Shadowяs Eye.flac Size: 16780137 Hash: 2501676D9CD8B4CFBD09BE8C6F8F2F4B Accuracy: -m0 Conclusion: CDDA 100% Signature: 7C77A5AFD161BFE77C60A7CA7BF26B6C5F814CE0FILE: 05 - Lily Has A Rose.flac Size: 13648073 Hash: 4AC503B3B75859EA1C57ADEE31C2B918 Accuracy: -m0 Conclusion: CDDA 99% Signature: 52CE1338BF6DD41448F384E0450607C7371181BBFILE: 04 - Sad Benjamin.flac Size: 23904118 Hash: 417013A8EA3100999F3A2E54ED6BB379 Accuracy: -m0 Conclusion: CDDA 100% Signature: 085B27EA96CB9266FE09B06722A91953BD2534E3FILE: 03 - Introductory Lines.flac Size: 21567424 Hash: 70B9FB84D93004A7D48A95A13B7846D4 Accuracy: -m0 Conclusion: CDDA 100% Signature: E0AB7208DD8A3E849F25684844D292AEB212C885FILE: 02 - Kempяs Gig.flac Size: 2646586 Hash: 7268B230BDA642251AB9239831112154 Accuracy: -m0 Conclusion: CDDA 100% Signature: DB76EA256AB69BDDF4F7D17EFEE2BED503753FBD
This album adds a "chapter zero" to Time's story, as the demos included here predate the material released on Dog Days. These 35 minutes of music were recorded in January 1968, when Tom McFaul, Lynn David Newton, Richard Stanley, and David Rosenboom drove twice from Buffalo to a recording studio in Toronto. Their original brand of psychedelic music had already gelled, as songs like "Introductory Lines" and "Sad Benjamin" illustrate. The 11 tracks included here go back and forth between post-Sgt. Pepper's psychedelic pop and acid folk with medieval leanings. The inclusion of Stanley's solo rendition of "Kemp's Jig" is somewhat surprising -- the same traditional tune would become one of medieval progressive icon Gryphon's early live staples. "A Song for You," "Introductory Lines," and "Elin Experience" are the most interesting tracks. Quite experimental for 1967, they feature odd meters and shifting sections of straight pop songwriting and abstract developments. "Dover Beach" is a straightforward pop song in the Kinks/Turtles vein, while "Waking" and "Lily Has a Rose" fall back to delicate folk, with Stanley playing the lute. Despite the obscurity of the band and the imperfect sound quality (the tapes were discovered over 30 years after they were recorded), Before There Was... Time makes a very decent listen. This band had stumbled upon something good early on. It is a shame that they could not develop fully in Buffalo's conservative climate.

~ Francois Couture, All Music Guide
http://oldishpsychprog.ucoz.com/news/time_1968_before_there_was/2010-06-12-2184
Lynn David Newton (bass, vocals, percussion, trombone)
Tom McFaul (vocals, keyboards)
Richard Stanley (guitar, lute, percussion, dulcimer)
David Rosenboom (drums, percussion)



Трекер:  [ 03-Июл-2012 17:50 ]

  

Скачать .torrent

Размер .torrent файла 19 KB


Размер: 223 MB
Хэш (hash) релиза: 4d745491019b946eeff150df1651aa227ca8953f

Еще никто не оставлял запись к записи скачать торрент Time - Before There Was...TIME - 1968 . Будь первым!

!Обратная связь