Скачать через торрент музыку Asia - XXX - 2012, FLAC бесплатно без регистрации torrent

Если у вас наблюдаются проблемы со скриншотами, переходом по ссылками, скачиванием торрентов - проблемы в блокировщике рекламы AdBlock. #хорошегоДня!


Статистика раздачи
Размер:  462 MB   |    Зарегистрирован:  5 лет 4 месяца   |    .torrent скачан:  31 раз   |   
Раздают:  1  
   
Загрузка...
 
Автор Сообщение

Umakiro

avatar Umakiro


Asia / XXX

Жанр: Progressive Rock, AOR
Страна-производитель диска: Japan
Год издания: 2012
Издатель (лейбл): MARQUEE INC.
Номер по каталогу: MICP-11065
Аудиокодек: FLAC (*.flac)
Тип рипа: image+.cue
Битрейт аудио: lossless
Продолжительность: 65:13
Источник (релизер): Мой рип
Наличие сканов в содержимом раздачи: да

Треклист:
01 Tomorrow The World
02 Bury Me In Willow
03 No Religion
04 Faithful
05 I Know How You Feel
06 Face On The Bridge
07 Al Gatto Nero
08 Judas
09 Reno (Silver And Gold) bonus track
10 Ghost Of A Chance
11 I Know How You Feel (Midnight Mix) bonus track
12 Faithful (Orchestral Version) Japan bonus track

Artists:

John Wetton vocals and bass
Geoff Downes keyboards
Steve Howe guitars
Carl Palmer drums

Очень интересный альбом. За 30 лет не растеряли ни задор молодецкий, ни способность хиты писать. Мне кажется, что весь альбом проникнут тем же духом 80-х, что и первые альбомы.
  
Exact Audio Copy V0.99 prebeta 5 from 4. May 2009

Отчёт EAC об извлечении, выполненном 27. июня 2012, 21:44

Asia / XXX

Дисковод: Optiarc DVD RW AD-7561S Adapter: 2 ID: 1

Режим чтения : ДостоверностьИспользование точного потока : ДаОтключение кэша аудио : ДаИспользование указателей C2 : Нет

Коррекция смещения при чтении : 6Способность читать области Lead-in и Lead-out : НетЗаполнение пропущенных сэмплов тишиной : ДаУдаление блоков с тишиной в начале и конце : НетПри вычислениях CRC использовались нулевые сэмплы : ДаИнтерфейс : Встроенный Win32-интерфейс для Win NT/2000

Выходной формат : Внутренние WAV-операцииФормат сэмплов : 44.100 Гц; 16 бит; стерео

TOC извлечённого CD

Трек | Старт | Длительность | Начальный сектор | Конечный сектор --------------------------------------------------------------------- 1 | 0:00.00 | 6:47.34 | 0 | 30558 2 | 6:47.34 | 6:01.35 | 30559 | 57668 3 | 12:48.69 | 6:36.28 | 57669 | 87396 4 | 19:25.22 | 5:37.59 | 87397 | 112730 5 | 25:03.06 | 4:53.70 | 112731 | 134775 6 | 29:57.01 | 5:59.59 | 134776 | 161759 7 | 35:56.60 | 4:36.70 | 161760 | 182529 8 | 40:33.55 | 4:43.64 | 182530 | 203818 9 | 45:17.44 | 5:15.63 | 203819 | 227506 10 | 50:33.32 | 4:21.66 | 227507 | 247147 11 | 54:55.23 | 5:23.41 | 247148 | 271413 12 | 60:18.64 | 4:54.47 | 271414 | 293510

Характеристики диапазона извлечения и сообщения об ошибках

Выбранный диапазон

Имя файла C:\Torrent\Asia\2012-XXX\Asia - XXX.wav

Пиковый уровень 99.6 % Качество диапазона 99.9 % CRC копии 05617CF4 Копирование... OK

Ошибок не произошло

AccurateRip: сводка

Трек 1 нет в базе данныхТрек 2 нет в базе данныхТрек 3 нет в базе данныхТрек 4 нет в базе данныхТрек 5 нет в базе данныхТрек 6 нет в базе данныхТрек 7 нет в базе данныхТрек 8 нет в базе данныхТрек 9 нет в базе данныхТрек 10 нет в базе данныхТрек 11 нет в базе данныхТрек 12 нет в базе данных

Ни одного трека нет в базе AccurateRip

Конец отчёта
  
REM GENRE RockREM DATE 2012REM DISCID AD0F490CREM COMMENT "ExactAudioCopy v0.99pb5"PERFORMER "Asia"TITLE "XXX"FILE "Asia - XXX.wav" WAVE TRACK 01 AUDIO TITLE "Tomorrow The World" PERFORMER "Asia" ISRC GA\2<1200038 INDEX 01 00:00:00 TRACK 02 AUDIO TITLE "Bury Me In Willow" PERFORMER "Asia" ISRC GA\2<1200039 INDEX 01 06:47:34 TRACK 03 AUDIO TITLE "No Religion" PERFORMER "Asia" ISRC GA\2<1200040 INDEX 01 12:48:69 TRACK 04 AUDIO TITLE "Faithful" PERFORMER "Asia" ISRC GA\2<1200041 INDEX 01 19:25:22 TRACK 05 AUDIO TITLE "I Know How You Feel" PERFORMER "Asia" ISRC GA\2<1200042 INDEX 01 25:03:06 TRACK 06 AUDIO TITLE "Face On The Bridge" PERFORMER "Asia" ISRC GA\2<1200042 INDEX 01 29:57:01 TRACK 07 AUDIO TITLE "Al Gatto Nero" PERFORMER "Asia" ISRC GA\2<1200044 INDEX 01 35:56:60 TRACK 08 AUDIO TITLE "Judas" PERFORMER "Asia" ISRC GA\2<1200045 INDEX 01 40:33:55 TRACK 09 AUDIO TITLE "Reno (Silver And Gold) bonus track" PERFORMER "Asia" ISRC GA\2<1200045 INDEX 01 45:17:44 TRACK 10 AUDIO TITLE "Ghost Of A Chance" PERFORMER "Asia" ISRC GA\2<1200046 INDEX 01 50:33:32 TRACK 11 AUDIO TITLE "I Know How You Feel (Midnight Mix) bonus track" PERFORMER "Asia" ISRC GA\2<1200048 INDEX 01 54:55:23 TRACK 12 AUDIO TITLE "Faithful (Orchestral Version) Japan bonus track" PERFORMER "Asia" ISRC GA\2<1200048 INDEX 01 60:18:64


Трекер:  [ 03-Июл-2012 17:50 ]

  

Скачать .torrent

Размер .torrent файла 19 KB


Размер: 462 MB
Хэш (hash) релиза: f41554ee1516d8ad38e944a145881731fe6a2e18

Торренты, похожие на Asia - XXX - 2012, FLAC скачать торрент

Форум Название Автор Размер S L Добавлен
Зарубежный Rock ·· (Progressive Rock, AOR) Asia - XXX - 2012, FLAC (tracks), lossless Leito57 367570976351 MB 0 0 1340954460

10:21

29-Июн-12

Еще никто не оставлял запись к записи скачать торрент Asia - XXX - 2012, FLAC . Будь первым!

!Обратная связь