Скачать через торрент музыку Fuchs - Leaving Home бесплатно без регистрации torrent

Если у вас наблюдаются проблемы со скриншотами, переходом по ссылками, скачиванием торрентов - проблемы в блокировщике рекламы AdBlock. #хорошегоДня!


Статистика раздачи
Размер:  489 MB   |    Зарегистрирован:  5 лет 1 месяц   |    .torrent скачан:  13 раз   |   
Раздают:  1  
   
Загрузка...
 
Автор Сообщение

Umakiro

avatar Umakiro


Fuchs / Leaving Home (2012)

Жанр: Progressive Rock
Страна-производитель диска: Germany
Год издания: 2012
Издатель (лейбл): Tempus Fugit
Номер по каталогу: TF VO 30
Страна: Germany
Аудиокодек: FLAC (*.flac)
Тип рипа: image+.cue
Битрейт аудио: lossless
Продолжительность: 74:59
Источник (релизер): my CD
Наличие сканов в содержимом раздачи: да

Треклист:
01. Long Time Ago (03:13)
02. Summer We Come (06:14)
03. Such A State Of Affairs 1. (02:14)
04. These Golden Fields (03:51)
05. Life's In Balance (04:41)
06. A Harbringer's Requiem (02:38)
07. Forgive Me (Atonement) (07:21)
08. Symphony In Disguise (07:32)
09. Will You Pray For Me (05:24)
10. Such A State Of Affairs 2 (02:29)
11. Don't Think About (05:52)
12. These Golden Fields (Reprise) (01:19)
13. Isn't Someone Coming Back (The Last Days 1) (03:59)
14. Darkness Is Strong (The Last Days 2) (04:25)
15. Crawling Back Into My Dream (05:58)
16. Leaving Home (07:42)
  
Exact Audio Copy V0.99 prebeta 4 from 23. January 2008

Отчёт EAC об извлечении, выполненном 2. июля 2012, 2:59

Fuchs / Leaving home

Дисковод: PIONEER DVD-RW DVR-219L Adapter: 3 ID: 1

Режим чтения : ДостоверностьИспользование точного потока : ДаОтключение кэша аудио : ДаИспользование указателей C2 : Нет

Коррекция смещения при чтении : 6Способность читать области Lead-in и Lead-out : НетЗаполнение пропущенных сэмплов тишиной : ДаУдаление блоков с тишиной в начале и конце : НетПри вычислениях CRC использовались нулевые сэмплы : ДаИнтерфейс : Встроенный Win32-интерфейс для Win NT/2000

Выходной формат : Пользовательский кодировщикВыбранный битрейт : 768 kBit/sКачество : ВысокийДобавление ID3-тэга : НетУтилита сжатия : C:\Program Files\Exact Audio Copy\FLAC\FLAC.EXEДополнительные параметры : -6 -V -T "ARTIST=%a" -T "TITLE=%t" -T "ALBUM=%g" -T "DATE=%y" -T "TRACKNUMBER=%n" -T "GENRE=%m" -T "COMMENT=%e" %s -o %d

TOC извлечённого CD

Трек | Старт | Длительность | Начальный сектор | Конечный сектор --------------------------------------------------------------------- 1 | 0:00.00 | 3:13.37 | 0 | 14511 2 | 3:13.37 | 6:14.05 | 14512 | 42566 3 | 9:27.42 | 2:14.47 | 42567 | 52663 4 | 11:42.14 | 3:51.65 | 52664 | 70053 5 | 15:34.04 | 4:41.66 | 70054 | 91194 6 | 20:15.70 | 2:38.29 | 91195 | 103073 7 | 22:54.24 | 7:21.43 | 103074 | 136191 8 | 30:15.67 | 7:31.74 | 136192 | 170090 9 | 37:47.66 | 5:24.57 | 170091 | 194447 10 | 43:12.48 | 2:29.34 | 194448 | 205656 11 | 45:42.07 | 5:52.08 | 205657 | 232064 12 | 51:34.15 | 1:19.64 | 232065 | 238053 13 | 52:54.04 | 3:59.07 | 238054 | 255985 14 | 56:53.11 | 4:25.43 | 255986 | 275903 15 | 61:18.54 | 5:58.62 | 275904 | 302815 16 | 67:17.41 | 7:42.00 | 302816 | 337465

Характеристики диапазона извлечения и сообщения об ошибках

Выбранный диапазон

Имя файла D:\purple\EAC\Fuchs - Leaving home.wav

Пиковый уровень 100.0 % Качество диапазона 100.0 % CRC теста 8B9CDF7A CRC копии 8B9CDF7A Копирование... OK

Ошибок не произошло

AccurateRip: сводка

Трек 1 нет в базе данныхТрек 2 нет в базе данныхТрек 3 нет в базе данныхТрек 4 нет в базе данныхТрек 5 нет в базе данныхТрек 6 нет в базе данныхТрек 7 нет в базе данныхТрек 8 нет в базе данныхТрек 9 нет в базе данныхТрек 10 нет в базе данныхТрек 11 нет в базе данныхТрек 12 нет в базе данныхТрек 13 нет в базе данныхТрек 14 нет в базе данныхТрек 15 нет в базе данныхТрек 16 нет в базе данных

Ни одного трека нет в базе AccurateRip

Конец отчёта
Hans-Jurgen 'Hansi' FUCHS, multi-instrumentalist from Stuttgart, has been involved in many different musical projects. He is also one of the musical masterminds behind his wife's productions, the keyboardist Ines FUCHS, who recorded four highly acknowledged Progressive rock albums under the name INES between 1994 - 2002. The guitarist, singer and keyboardist is also a music producer. In the spring of 2012, he released his first solo album under the name of "Leaving Home". It tells the story of a German family between 1920 and 1945, beginning with the happy years of a young love, followed by HITLER's seizure of power ending in curse and expulsion. It is his father's family's story, pieced together from his grandmother's anecdotes. Hansi FUCHS has rearranged the puzzle and managed to develop a very personal concept-album. He doesn't want to hide his musical roots despite, or just because of, the story's severe content and drama. "Leaving Home" illustrates various influences of the Seventies, mainly in the Progressive rock genre. Ines FUCHS adds a beautiful synthesizer solo to the album, thus closing the circle to their successful days. The start of a new cycle ?
Hans-Jurgen Fuchs - lead vocals on track 1/6/7/8/15, backing vocals, acoustic and electric guitars, lapsteel, bass, programming, piano, keyboards
Baggi Buchmann - lead vocals on track 2/4/7/8/9/11/13/15, backing vocals
Mirjam Michutta - lead vocals on track 4/9, backing vocals
Andy Kafer - lead vocals on track 5/14/16, backing vocals
Sven Heine - backing vocals
Ines Fuchs - synth solo on track 5
Maike Mohr - grand piano solo on track 8
Rafael Sonntag - guitar solo on track 7/11
Henrik Mumm - cello on track 4/7/16
Andy Bartzik - guitar solo on track 8/14/16


Трекер:  [ 03-Июл-2012 17:50 ]

  

Скачать .torrent

Размер .torrent файла 20 KB


Размер: 489 MB
Хэш (hash) релиза: 8c01d516c07fe0b856856fc320bcf719ed3618d3

Еще никто не оставлял запись к записи скачать торрент Fuchs - Leaving Home . Будь первым!

!Обратная связь