Скачать через торрент музыку Van Der Graaf Generator - Alt - 2012, FLAC бесплатно без регистрации torrent

Если у вас наблюдаются проблемы со скриншотами, переходом по ссылками, скачиванием торрентов - проблемы в блокировщике рекламы AdBlock. #хорошегоДня!


Статистика раздачи
Размер:  337 MB   |    Зарегистрирован:  5 лет 4 месяца   |    .torrent скачан:  38 раз   |   
Раздают:  1  
   
Загрузка...
 
Автор Сообщение

Umakiro

avatar Umakiro


Van Der Graaf Generator - ALT
Жанр:Progressive Rock / Art Rock / Instrumental
Год издания диска: 2012
Страна: UK
Аудио кодек: FLAC (*.flac)
Тип рипа: tracks+.cue
Битрейт аудио: lossless
Продолжительность: 1:01:06
Источник (релизер): what.cd (Shane)
Наличие сканов в содержимом раздачи: нет

Доп. информация:

http://www.vandergraafgenerator.co.uk/



01.Earlybird (4:01)
02.Extractus (1:39)
03.Sackbutt (1:53)
04.Colossus (6:36)
05.Batty Loop (1:14)
06.Splendid (3:46)
07.Repeat After Me (7:39)
08.Elsewhere (4:19)
09.Here's One I Made Earlier (5:42)
10.Midnite Or So (3:34)
11.D'Accord (2:28)
12.Mackerel Ate them (4:50)
13.Tuesday, The Riff (2:47)
14.Dronus (10:37)
  
Exact Audio Copy V1.0 beta 3 from 29. August 2011

EAC extraction logfile from 2. July 2012, 18:24

Van Der Graaf Generator / Alt

Used drive : PLDS DVD+-RW DS-8A8SH Adapter: 1 ID: 0

Read mode : SecureUtilize accurate stream : YesDefeat audio cache : YesMake use of C2 pointers : No

Read offset correction : 6Overread into Lead-In and Lead-Out : NoFill up missing offset samples with silence : YesDelete leading and trailing silent blocks : NoNull samples used in CRC calculations : YesUsed interface : Native Win32 interface for Win NT & 2000Gap handling : Appended to previous track

Used output format : User Defined EncoderSelected bitrate : 1024 kBit/sQuality : HighAdd ID3 tag : NoCommand line compressor : E:\apps\Exact Audio Copy\Flac\flac.exeAdditional command line options : -8 -V -T "ARTIST=%artist%" -T "TITLE=%title%" -T "ALBUM=%albumtitle%" -T "DATE=%year%" -T "TRACKNUMBER=%tracknr%" -T "GENRE=%genre%" -T "PERFORMER=%albuminterpret%" -T "COMPOSER=%composer%" %haslyrics%--tag-from-file=LYRICS="%lyricsfile%"%haslyrics% -T "ALBUMARTIST=%albumartist%" -T "DISCNUMBER=%cdnumber%" -T "TOTALDISCS=%totalcds%" -T "TOTALTRACKS=%numtracks%" -T "COMMENT=%comment%" %source% -o %dest%

TOC of the extracted CD

Track | Start | Length | Start sector | End sector --------------------------------------------------------- 1 | 0:00.00 | 4:01.32 | 0 | 18106 2 | 4:01.32 | 1:38.41 | 18107 | 25497 3 | 5:39.73 | 1:53.00 | 25498 | 33972 4 | 7:32.73 | 6:35.50 | 33973 | 63647 5 | 14:08.48 | 1:13.55 | 63648 | 69177 6 | 15:22.28 | 3:46.05 | 69178 | 86132 7 | 19:08.33 | 7:39.00 | 86133 | 120557 8 | 26:47.33 | 4:19.32 | 120558 | 140014 9 | 31:06.65 | 5:42.14 | 140015 | 165678 10 | 36:49.04 | 3:34.34 | 165679 | 181762 11 | 40:23.38 | 2:28.31 | 181763 | 192893 12 | 42:51.69 | 4:49.70 | 192894 | 214638 13 | 47:41.64 | 2:47.02 | 214639 | 227165 14 | 50:28.66 | 10:37.35 | 227166 | 274975

Track 1

Filename C:\Users\corp\Desktop\Van der Graaf Generator - ALT (2012) - FLAC\01 - Earlybird.wav

Pre-gap length 0:00:02.00

Peak level 84.7 % Extraction speed 1.8 X Track quality 100.0 % Test CRC EA59F5D8 Copy CRC EA59F5D8 Accurately ripped (confidence 1) [FC623369] (AR v2) Copy OK

Track 2

Filename C:\Users\corp\Desktop\Van der Graaf Generator - ALT (2012) - FLAC\02 - Extractus.wav

Pre-gap length 0:00:00.01

Peak level 88.2 % Extraction speed 1.7 X Track quality 100.0 % Test CRC 1C0BA523 Copy CRC 1C0BA523 Accurately ripped (confidence 1) [A66F6F87] (AR v2) Copy OK

Track 3

Filename C:\Users\corp\Desktop\Van der Graaf Generator - ALT (2012) - FLAC\03 - Sackbutt.wav

Peak level 80.0 % Extraction speed 1.8 X Track quality 100.0 % Test CRC A14C3C37 Copy CRC A14C3C37 Accurately ripped (confidence 1) [FAFEA2A9] (AR v2) Copy OK

Track 4

Filename C:\Users\corp\Desktop\Van der Graaf Generator - ALT (2012) - FLAC\04 - Colossus.wav

Peak level 97.4 % Extraction speed 2.4 X Track quality 100.0 % Test CRC DB80E3D5 Copy CRC DB80E3D5 Accurately ripped (confidence 1) [B6058E73] (AR v2) Copy OK

Track 5

Filename C:\Users\corp\Desktop\Van der Graaf Generator - ALT (2012) - FLAC\05 - Batty Loop.wav

Pre-gap length 0:00:01.85

Peak level 85.1 % Extraction speed 1.8 X Track quality 100.0 % Test CRC FA0F3EF7 Copy CRC FA0F3EF7 Accurately ripped (confidence 1) [64554E26] (AR v2) Copy OK

Track 6

Filename C:\Users\corp\Desktop\Van der Graaf Generator - ALT (2012) - FLAC\06 - Splendid.wav

Pre-gap length 0:00:02.72

Peak level 100.0 % Extraction speed 1.9 X Track quality 99.9 % Test CRC A142ED79 Copy CRC A142ED79 Accurately ripped (confidence 1) [D8F73D42] (AR v2) Copy OK

Track 7

Filename C:\Users\corp\Desktop\Van der Graaf Generator - ALT (2012) - FLAC\07 - Repeat After Me.wav

Pre-gap length 0:00:00.09

Peak level 92.5 % Extraction speed 2.9 X Track quality 100.0 % Test CRC F8EB8878 Copy CRC F8EB8878 Accurately ripped (confidence 1) [912FADF7] (AR v2) Copy OK

Track 8

Filename C:\Users\corp\Desktop\Van der Graaf Generator - ALT (2012) - FLAC\08 - Elsewhere.wav

Pre-gap length 0:00:02.08

Peak level 100.0 % Extraction speed 3.0 X Track quality 100.0 % Test CRC ABB68131 Copy CRC ABB68131 Accurately ripped (confidence 1) [A32E4BB1] (AR v2) Copy OK

Track 9

Filename C:\Users\corp\Desktop\Van der Graaf Generator - ALT (2012) - FLAC\09 - Here's One I Made Earlier.wav

Pre-gap length 0:00:01.89

Peak level 63.2 % Extraction speed 3.2 X Track quality 100.0 % Test CRC D295F2D5 Copy CRC D295F2D5 Accurately ripped (confidence 1) [DC41E92F] (AR v2) Copy OK

Track 10

Filename C:\Users\corp\Desktop\Van der Graaf Generator - ALT (2012) - FLAC\10 - Midnite Or So.wav

Pre-gap length 0:00:00.93

Peak level 83.4 % Extraction speed 2.4 X Track quality 99.9 % Test CRC A97E4947 Copy CRC A97E4947 Accurately ripped (confidence 1) [82CDF3F1] (AR v2) Copy OK

Track 11

Filename C:\Users\corp\Desktop\Van der Graaf Generator - ALT (2012) - FLAC\11 - D'Accord.wav

Pre-gap length 0:00:01.96

Peak level 73.8 % Extraction speed 2.1 X Track quality 99.9 % Test CRC E1347480 Copy CRC E1347480 Accurately ripped (confidence 1) [99E3C778] (AR v2) Copy OK

Track 12

Filename C:\Users\corp\Desktop\Van der Graaf Generator - ALT (2012) - FLAC\12 - Mackerel Ate them.wav

Pre-gap length 0:00:02.88

Peak level 85.7 % Extraction speed 3.5 X Track quality 100.0 % Test CRC D2892E20 Copy CRC D2892E20 Accurately ripped (confidence 1) [3E188483] (AR v2) Copy OK

Track 13

Filename C:\Users\corp\Desktop\Van der Graaf Generator - ALT (2012) - FLAC\13 - Tuesday, The Riff.wav

Pre-gap length 0:00:02.89

Peak level 89.1 % Extraction speed 3.3 X Track quality 100.0 % Test CRC 009AC51F Copy CRC 009AC51F Accurately ripped (confidence 1) [FEDD56A7] (AR v2) Copy OK

Track 14

Filename C:\Users\corp\Desktop\Van der Graaf Generator - ALT (2012) - FLAC\14 - Dronus.wav

Pre-gap length 0:00:04.90

Peak level 94.2 % Extraction speed 3.6 X Track quality 99.9 % Test CRC F3E1EA44 Copy CRC F3E1EA44 Accurately ripped (confidence 1) [BF0AD4BF] (AR v2) Copy OK

All tracks accurately ripped

No errors occurred

End of status report

---- CUETools DB Plugin V2.1.3

[CTDB TOCID: rmjGBMdVfgOEG_ZkTf52KJrbBug-] found, Submit result: rmjGBMdVfgOEG_ZkTf52KJrbBug- has been confirmed[e6ad68bd] (4/4) Accurately ripped

==== Log checksum C2B8DF62535DE9BA443F4A3CE8353A87B982E70AA9609B3FE8FE28CD85CD2D9A ====
  
REM GENRE "Alt. Rock"REM DATE 2012REM DISCID A70E520EREM COMMENT "ExactAudioCopy v1.0b3"CATALOG 5013929710382PERFORMER "Van Der Graaf Generator"TITLE "Alt"FILE "01 - Earlybird.wav" WAVE TRACK 01 AUDIO TITLE "Earlybird" PERFORMER "Van Der Graaf Generator" ISRC GBBLY1201391 INDEX 01 00:00:00 TRACK 02 AUDIO TITLE "Extractus" PERFORMER "Van Der Graaf Generator" ISRC GBBLY1201392 FLAGS DCP INDEX 00 04:01:31FILE "02 - Extractus.wav" WAVE INDEX 01 00:00:00FILE "03 - Sackbutt.wav" WAVE TRACK 03 AUDIO TITLE "Sackbutt" PERFORMER "Van Der Graaf Generator" ISRC GBBLY1201393 FLAGS DCP INDEX 01 00:00:00FILE "04 - Colossus.wav" WAVE TRACK 04 AUDIO TITLE "Colossus" PERFORMER "Van Der Graaf Generator" ISRC GBBLY1201394 FLAGS DCP INDEX 01 00:00:00 TRACK 05 AUDIO TITLE "Batty Loop" PERFORMER "Van Der Graaf Generator" ISRC GBBLY1201395 FLAGS DCP INDEX 00 06:33:61FILE "05 - Batty Loop.wav" WAVE INDEX 01 00:00:00 TRACK 06 AUDIO TITLE "Splendid" PERFORMER "Van Der Graaf Generator" ISRC GBBLY1201396 FLAGS DCP INDEX 00 01:11:01FILE "06 - Splendid.wav" WAVE INDEX 01 00:00:00 TRACK 07 AUDIO TITLE "Repeat After Me" PERFORMER "Van Der Graaf Generator" ISRC GBBLY1201397 INDEX 00 03:45:73FILE "07 - Repeat After Me.wav" WAVE INDEX 01 00:00:00 TRACK 08 AUDIO TITLE "Elsewhere" PERFORMER "Van Der Graaf Generator" ISRC GBBLY1201398 FLAGS DCP INDEX 00 07:36:69FILE "08 - Elsewhere.wav" WAVE INDEX 01 00:00:00 TRACK 09 AUDIO TITLE "Here's One I Made Earlier" PERFORMER "Van Der Graaf Generator" ISRC GBBLY1201399 FLAGS DCP INDEX 00 04:17:40FILE "09 - Here's One I Made Earlier.wav" WAVE INDEX 01 00:00:00 TRACK 10 AUDIO TITLE "Midnite Or So" PERFORMER "Van Der Graaf Generator" ISRC GBBLY1201400 INDEX 00 05:41:19FILE "10 - Midnite Or So.wav" WAVE INDEX 01 00:00:00 TRACK 11 AUDIO TITLE "D'Accord" PERFORMER "Van Der Graaf Generator" ISRC GBBLY1201401 FLAGS DCP INDEX 00 03:32:37FILE "11 - D'Accord.wav" WAVE INDEX 01 00:00:00 TRACK 12 AUDIO TITLE "Mackerel Ate them" PERFORMER "Van Der Graaf Generator" ISRC GBBLY1201402 FLAGS DCP INDEX 00 02:25:40FILE "12 - Mackerel Ate them.wav" WAVE INDEX 01 00:00:00 TRACK 13 AUDIO TITLE "Tuesday, The Riff" PERFORMER "Van Der Graaf Generator" ISRC GBBLY1201403 FLAGS DCP INDEX 00 04:47:03FILE "13 - Tuesday, The Riff.wav" WAVE INDEX 01 00:00:00 TRACK 14 AUDIO TITLE "Dronus" PERFORMER "Van Der Graaf Generator" ISRC GBBLY1201404 FLAGS DCP INDEX 00 02:42:09FILE "14 - Dronus.wav" WAVE INDEX 01 00:00:00


Трекер:  [ 03-Июл-2012 17:49 ]

  

Скачать .torrent

Размер .torrent файла 14 KB


Размер: 337 MB
Хэш (hash) релиза: e41cc170c8a04fc06d3985afbaa3e3bf6f819658

Еще никто не оставлял запись к записи скачать торрент Van Der Graaf Generator - Alt - 2012, FLAC . Будь первым!

!Обратная связь