Скачать через торрент музыку Saint Saviour - Union - 2012, FLAC бесплатно без регистрации torrent

Если у вас наблюдаются проблемы со скриншотами, переходом по ссылками, скачиванием торрентов - проблемы в блокировщике рекламы AdBlock. #хорошегоДня!


Статистика раздачи
Размер:  311 MB   |    Зарегистрирован:  5 лет 4 месяца   |    .torrent скачан:  10 раз   |   
Раздают:  1  
   
Загрузка...
 
Автор Сообщение

Umakiro

avatar Umakiro


Saint Saviour / Union

Жанр: Alternative/Art-Rock/Indie
Страна-производитель диска: UK
Год издания: 2012
Издатель (лейбл): Surface Area
Номер по каталогу: SURFACE01CDX
Страна: UK
Аудиокодек: FLAC (*.flac)
Тип рипа: tracks+.cue
Битрейт аудио: lossless
Продолжительность: 52:48:15
Источник (релизер): WEB
Наличие сканов в содержимом раздачи: нет

Треклист:
01. Mercy
02. Tightrope
03. I Call This Home
04. Liberty
05. Fight
06. Reasons
07. This Ain’t No Hymn
08. Jennifer
09. Domino
10. The Rain Falls On The Just
11. Dreamtime
12. Fallen Trees
13. Horse
  
Exact Audio Copy V1.0 beta 3 from 29. August 2011

EAC extraction logfile from 24. June 2012, 8:43

Saint Saviour / Union

Used drive : PLEXTOR DVDR PX-L890SA Adapter: 2 ID: 1

Read mode : SecureUtilize accurate stream : YesDefeat audio cache : YesMake use of C2 pointers : No

Read offset correction : 6Overread into Lead-In and Lead-Out : NoFill up missing offset samples with silence : YesDelete leading and trailing silent blocks : NoNull samples used in CRC calculations : YesUsed interface : Native Win32 interface for Win NT & 2000Gap handling : Appended to previous track

Used output format : User Defined EncoderSelected bitrate : 128 kBit/sQuality : HighAdd ID3 tag : NoCommand line compressor : C:\Program Files\Exact Audio Copy\Flac\flac.exeAdditional command line options : -8 -V -T "ARTIST=%artist%" -T "TITLE=%title%" -T "ALBUM=%albumtitle%" -T "DATE=%year%" -T "TRACKNUMBER=%tracknr%" -T "GENRE=%genre%" -T "PERFORMER=%albuminterpret%" -T "COMPOSER=%composer%" %haslyrics%--tag-from-file=LYRICS="%lyricsfile%"%haslyrics% -T "ALBUMARTIST=%albumartist%" -T "DISCNUMBER=%cdnumber%" -T "TOTALDISCS=%totalcds%" -T "TOTALTRACKS=%numtracks%" -T "COMMENT=%comment%" %source% -o %dest%

TOC of the extracted CD

Track | Start | Length | Start sector | End sector --------------------------------------------------------- 1 | 0:00.00 | 4:22.07 | 0 | 19656 2 | 4:22.07 | 4:11.46 | 19657 | 38527 3 | 8:33.53 | 3:51.27 | 38528 | 55879 4 | 12:25.05 | 3:54.73 | 55880 | 73502 5 | 16:20.03 | 3:14.68 | 73503 | 88120 6 | 19:34.71 | 4:15.19 | 88121 | 107264 7 | 23:50.15 | 4:22.53 | 107265 | 126967 8 | 28:12.68 | 5:13.22 | 126968 | 150464 9 | 33:26.15 | 3:36.13 | 150465 | 166677 10 | 37:02.28 | 3:17.10 | 166678 | 181462 11 | 40:19.38 | 3:30.54 | 181463 | 197266 12 | 43:50.17 | 4:42.16 | 197267 | 218432 13 | 48:32.33 | 4:15.42 | 218433 | 237599

Track 1

Filename C:\Users\AL\Desktop\Saint Saviour - Union (flac)\01 Mercy.wav

Pre-gap length 0:00:02.00

Peak level 98.8 % Extraction speed 3.5 X Track quality 100.0 % Test CRC EF05D312 Copy CRC EF05D312 Track not present in AccurateRip database Copy OK

Track 2

Filename C:\Users\AL\Desktop\Saint Saviour - Union (flac)\02 Tightrope.wav

Peak level 98.8 % Extraction speed 3.8 X Track quality 100.0 % Test CRC E615148C Copy CRC E615148C Track not present in AccurateRip database Copy OK

Track 3

Filename C:\Users\AL\Desktop\Saint Saviour - Union (flac)\03 I Call This Home.wav

Peak level 98.8 % Extraction speed 4.2 X Track quality 100.0 % Test CRC 1D87DD26 Copy CRC 1D87DD26 Track not present in AccurateRip database Copy OK

Track 4

Filename C:\Users\AL\Desktop\Saint Saviour - Union (flac)\04 Liberty.wav

Peak level 98.8 % Extraction speed 4.3 X Track quality 100.0 % Test CRC 8F62ECC7 Copy CRC 8F62ECC7 Track not present in AccurateRip database Copy OK

Track 5

Filename C:\Users\AL\Desktop\Saint Saviour - Union (flac)\05 Fight.wav

Peak level 98.8 % Extraction speed 4.4 X Track quality 100.0 % Test CRC 4AA5F5B1 Copy CRC 4AA5F5B1 Track not present in AccurateRip database Copy OK

Track 6

Filename C:\Users\AL\Desktop\Saint Saviour - Union (flac)\06 Reasons.wav

Peak level 98.8 % Extraction speed 4.9 X Track quality 100.0 % Test CRC FE7C3099 Copy CRC FE7C3099 Track not present in AccurateRip database Copy OK

Track 7

Filename C:\Users\AL\Desktop\Saint Saviour - Union (flac)\07 This Ain't No Hymn.wav

Peak level 98.8 % Extraction speed 5.4 X Track quality 100.0 % Test CRC 77B23EDF Copy CRC 77B23EDF Track not present in AccurateRip database Copy OK

Track 8

Filename C:\Users\AL\Desktop\Saint Saviour - Union (flac)\08 Jennifer.wav

Peak level 98.8 % Extraction speed 5.7 X Track quality 100.0 % Test CRC 04FD49A5 Copy CRC 04FD49A5 Track not present in AccurateRip database Copy OK

Track 9

Filename C:\Users\AL\Desktop\Saint Saviour - Union (flac)\09 Domino.wav

Peak level 98.8 % Extraction speed 5.6 X Track quality 100.0 % Test CRC 476A11F8 Copy CRC 476A11F8 Track not present in AccurateRip database Copy OK

Track 10

Filename C:\Users\AL\Desktop\Saint Saviour - Union (flac)\10 The Rain Falls On The Just.wav

Peak level 98.8 % Extraction speed 5.8 X Track quality 100.0 % Test CRC A5274A03 Copy CRC A5274A03 Track not present in AccurateRip database Copy OK

Track 11

Filename C:\Users\AL\Desktop\Saint Saviour - Union (flac)\11 Dreamtime.wav

Peak level 98.8 % Extraction speed 6.1 X Track quality 100.0 % Test CRC 5FCDD03B Copy CRC 5FCDD03B Track not present in AccurateRip database Copy OK

Track 12

Filename C:\Users\AL\Desktop\Saint Saviour - Union (flac)\12 Fallen Trees.wav

Peak level 98.8 % Extraction speed 5.2 X Track quality 99.9 % Test CRC 30B1D4EB Copy CRC 30B1D4EB Track not present in AccurateRip database Copy OK

Track 13

Filename C:\Users\AL\Desktop\Saint Saviour - Union (flac)\13 Horse.wav

Peak level 98.8 % Extraction speed 6.6 X Track quality 100.0 % Test CRC E60FF009 Copy CRC E60FF009 Track not present in AccurateRip database Copy OK

None of the tracks are present in the AccurateRip database

No errors occurred

End of status report

==== Log checksum A6AB9D319E9F502B71B73D0DE754A6B25CA6263A2F55C2419040526B400999AB ====
  
REM GENRE AlternativeREM DATE 2012REM DISCID A50C600DREM COMMENT "ExactAudioCopy v1.0b3"PERFORMER "Saint Saviour"TITLE "Union"FILE "01 Mercy.wav" WAVE TRACK 01 AUDIO TITLE "Mercy" PERFORMER "Saint Saviour" ISRC GBU5L1100016 INDEX 01 00:00:00FILE "02 Tightrope.wav" WAVE TRACK 02 AUDIO TITLE "Tightrope" PERFORMER "Saint Saviour" ISRC GBU5L1100017 INDEX 01 00:00:00FILE "03 I Call This Home.wav" WAVE TRACK 03 AUDIO TITLE "I Call This Home" PERFORMER "Saint Saviour" ISRC GBU5L1100018 INDEX 01 00:00:00FILE "04 Liberty.wav" WAVE TRACK 04 AUDIO TITLE "Liberty" PERFORMER "Saint Saviour" ISRC GBU5L1100019 INDEX 01 00:00:00FILE "05 Fight.wav" WAVE TRACK 05 AUDIO TITLE "Fight" PERFORMER "Saint Saviour" ISRC GBU5L1100020 INDEX 01 00:00:00FILE "06 Reasons.wav" WAVE TRACK 06 AUDIO TITLE "Reasons" PERFORMER "Saint Saviour" ISRC GBU5L1100021 INDEX 01 00:00:00FILE "07 This Ain't No Hymn.wav" WAVE TRACK 07 AUDIO TITLE "This Ain't No Hymn" PERFORMER "Saint Saviour" ISRC GBU5L1100022 INDEX 01 00:00:00FILE "08 Jennifer.wav" WAVE TRACK 08 AUDIO TITLE "Jennifer" PERFORMER "Saint Saviour" ISRC GBU5L1100023 INDEX 01 00:00:00FILE "09 Domino.wav" WAVE TRACK 09 AUDIO TITLE "Domino" PERFORMER "Saint Saviour" ISRC GBU5L1100024 INDEX 01 00:00:00FILE "10 The Rain Falls On The Just.wav" WAVE TRACK 10 AUDIO TITLE "The Rain Falls On The Just" PERFORMER "Saint Saviour" ISRC GBU5L1100025 INDEX 01 00:00:00FILE "11 Dreamtime.wav" WAVE TRACK 11 AUDIO TITLE "Dreamtime" PERFORMER "Saint Saviour" ISRC GBU5L1100026 INDEX 01 00:00:00FILE "12 Fallen Trees.wav" WAVE TRACK 12 AUDIO TITLE "Fallen Trees" PERFORMER "Saint Saviour" ISRC GBU5L1100027 INDEX 01 00:00:00FILE "13 Horse.wav" WAVE TRACK 13 AUDIO TITLE "Horse" PERFORMER "Saint Saviour" ISRC GBU5L1100028 INDEX 01 00:00:00
Saint Saviour (настоящее имя — Бекки Джонс) — автор-исполнитель родом из небольшого городка в Англии под названием Стоктон-он-Тис. Свою карьеру Бекки начала с составе электро-команды The RGBs, после чего она была приглашена в качестве со-автора и вокалистки в состав группы Groove Armada, с которыми был записан альбом Black Light, позднее номинированный на премию Грэмми.

В настоящее время Бекки Джонс занимается своим сольным проектом Saint Saviour. Совсем недавно был записан дебютный альбом Union, который вышел 25 июня 2012. Ранее были выпущены несколько EP ("Anatomy", "Suukei") и синглов, среди которых This Ain't No Hymn, Woman Scorned, I Call This Home.


Трекер:  [ 03-Июл-2012 17:49 ]

  

Скачать .torrent

Размер .torrent файла 13 KB


Размер: 311 MB
Хэш (hash) релиза: 68ccba312009e726d7c29cf03f06bc7e56a0edea

Еще никто не оставлял запись к записи скачать торрент Saint Saviour - Union - 2012, FLAC . Будь первым!

!Обратная связь