Скачать через торрент музыку XII Alfonso - Charles Darwin бесплатно без регистрации torrent

Если у вас наблюдаются проблемы со скриншотами, переходом по ссылками, скачиванием торрентов - проблемы в блокировщике рекламы AdBlock. #хорошегоДня!


Статистика раздачи
Размер:  1.08 GB   |    Зарегистрирован:  5 лет 1 месяц   |    .torrent скачан:  12 раз   |   
Раздают:  1  
   
Загрузка...
 
Автор Сообщение

Leito57


XII Alfonso / Charles Darwin [ Digibook ], 3CD

Жанр: Symphonic Progressive
Страна-производитель диска: France
Год издания: 2012
Издатель (лейбл): XIIALF
Номер по каталогу: 07.08.09
Страна: France
Аудиокодек: FLAC (*.flac)
Тип рипа: image+.cue
Битрейт аудио: lossless
Продолжительность: 1:00:47.62 + 1:00:08.02 + 1:00:05.34
Источник (релизер): диск из личной коллекции
Наличие сканов в содержимом раздачи: да
  
CD: XII Alfonso - Charles Darwin Vol1

01. Collection One [0:01:41.09]02. Earliest Recollections [0:04:58.19]03. Stolen Fruits [0:03:13.71]04. Physics and Hunting [0:03:50.47]05. Silent Battle [0:04:38.02]06. Collection Two And Three [0:01:46.44]07. The Bump Of Reverence [0:05:31.58]08. Leaving England (part 1) [0:01:30.38]09. Leaving England (part 2) [0:03:04.54]10. The Letter From Henslow [0:03:19.30]11. HMS Beagle [0:03:51.49]12. Collection Four [0:00:30.31]13. Captain Fitz-Roy [0:02:50.00]14. Straits Of Magellan [0:05:11.67]15. Tierra Del Fuego [0:07:46.25]16. Darwin's Finches [0:03:54.06]17. Homeward Bound [0:03:08.37]
  
CD: XII Alfonso - Charles Darwin Vol2

01. Collection Five [0:01:51.60]02. So Many Years [0:03:42.17]03. Strange Fossil [0:02:55.29]04. Emma and Charles [0:05:55.30]05. The Coral Of Life [0:05:07.33]06. Collection Six [0:01:11.00]07. Down House [0:04:32.14]08. The Island Of Devil's Riding School [0:04:00.05]09. Annie (part 1) [0:02:56.12]10. Annie (part 2) [0:02:02.25]11. Collection Seven [0:02:32.41]12. Beloved Cirripedia [0:03:55.62]13. An Ordinary Day [0:03:54.48]14. Salting The Seeds [0:06:23.42]15. Lenny [0:02:35.38]16. It's Time To Write [0:02:30.12]17. Collection Eight [0:00:55.73]18. Missing Links [0:03:05.61]
  
CD: XII Alfonso - Charles Darwin Vol3

01. Collection Nine [0:00:53.36]02. Bound Together [0:04:49.17]03. Descent With Modification [0:02:36.18]04. On The Origin Of Species [0:06:37.60]05. Controverse In Oxford [0:01:26.48]06. Collection Ten [0:00:56.36]07. Slave Makers [0:04:00.71]08. L.U.C.A. [0:04:03.07]09. Sombre Thoughts [0:05:29.17]10. Collection Eleven [0:00:57.14]11. Mysterious Illness [0:07:01.37]12. The Copley Medal [0:02:46.30]13. Vision of the Indian Mound [0:06:23.04]14. The Descent Of Man [0:04:53.34]15. Collection Twelve [0:00:55.30]16. Struggle for Existence [0:01:35.46]17. Charles Darwin's Burial [0:04:39.54]
  
CD one:Exact Audio Copy V1.0 beta 3 from 29. August 2011

Отчёт EAC об извлечении, выполненном 28. июня 2012, 19:26

XII Alfonso / Charles Darwin Vol1

Дисковод: TSSTcorpCDDVDW TS-L633J Adapter: 0 ID: 1

Режим чтения : ДостоверностьИспользование точного потока : ДаОтключение кэша аудио : ДаИспользование указателей C2 : Нет

Коррекция смещения при чтении : 6Способность читать области Lead-in и Lead-out : НетЗаполнение пропущенных сэмплов тишиной : ДаУдаление блоков с тишиной в начале и конце : НетПри вычислениях CRC использовались нулевые сэмплы : ДаИнтерфейс : Установленный внешний ASPI-интерфейс

Выходной формат : Пользовательский кодировщикВыбранный битрейт : 128 kBit/sКачество : ВысокийДобавление ID3-тега : НетУтилита сжатия : C:\Program Files\Exact Audio Copy\FLAC\FLAC.EXEДополнительные параметры : -6 -V -T "ARTIST=%artist%" -T "TITLE=%title%" -T "ALBUM=%albumtitle%" -T "DATE=%year%" -T "TRACKNUMBER=%tracknr%" -T "GENRE=%genre%" -T "COMMENT=%comment%" -T "BAND=%albuminterpret%" -T "ALBUMARTIST=%albuminterpret%" -T "COMPOSER=%composer%" %haslyrics%--tag-from-file=LYRICS="%lyricsfile%"%haslyrics% -T "DISCNUMBER=%cdnumber%" -T "TOTALDISCS=%totalcds%" -T "TOTALTRACKS=%numtracks%" %hascover%--picture="%coverfile%"%hascover% %source% -o %dest%

TOC извлечённого CD

Трек | Старт | Длительность | Начальный сектор | Конечный сектор --------------------------------------------------------------------- 1 | 0:00.00 | 1:41.09 | 0 | 7583 2 | 1:41.09 | 4:58.19 | 7584 | 29952 3 | 6:39.28 | 3:13.71 | 29953 | 44498 4 | 9:53.24 | 3:50.47 | 44499 | 61795 5 | 13:43.71 | 4:38.02 | 61796 | 82647 6 | 18:21.73 | 1:46.44 | 82648 | 90641 7 | 20:08.42 | 5:31.58 | 90642 | 115524 8 | 25:40.25 | 1:30.38 | 115525 | 122312 9 | 27:10.63 | 3:04.54 | 122313 | 136166 10 | 30:15.42 | 3:19.30 | 136167 | 151121 11 | 33:34.72 | 3:51.49 | 151122 | 168495 12 | 37:26.46 | 0:30.31 | 168496 | 170776 13 | 37:57.02 | 2:50.00 | 170777 | 183526 14 | 40:47.02 | 5:11.67 | 183527 | 206918 15 | 45:58.69 | 7:46.25 | 206919 | 241893 16 | 53:45.19 | 3:54.06 | 241894 | 259449 17 | 57:39.25 | 3:08.37 | 259450 | 273586

Характеристики диапазона извлечения и сообщения об ошибках

Выбранный диапазон

Имя файла C:\XII ALFONSO\cd1\XII Alfonso - Charles Darwin Vol1.wav

Пиковый уровень 95.6 % Скорость извлечения 3.0 X Качество диапазона 100.0 % CRC теста 035C7215 CRC копии 035C7215 Копирование... OK

Ошибок не произошло

AccurateRip: сводка

Трек 1 отсутствует в базе данныхТрек 2 отсутствует в базе данныхТрек 3 отсутствует в базе данныхТрек 4 отсутствует в базе данныхТрек 5 отсутствует в базе данныхТрек 6 отсутствует в базе данныхТрек 7 отсутствует в базе данныхТрек 8 отсутствует в базе данныхТрек 9 отсутствует в базе данныхТрек 10 отсутствует в базе данныхТрек 11 отсутствует в базе данныхТрек 12 отсутствует в базе данныхТрек 13 отсутствует в базе данныхТрек 14 отсутствует в базе данныхТрек 15 отсутствует в базе данныхТрек 16 отсутствует в базе данныхТрек 17 отсутствует в базе данных

Ни одного трека нет в базе AccurateRip

Конец отчёта

---- CUETools DB Plugin V2.1.3

[CTDB TOCID: f2Y6.wQt1P9A1dtseUubF.WuJoc-] found, Submit result: f2Y6.wQt1P9A1dtseUubF.WuJoc- has been confirmed[0da0d7c5] (1/1) Accurately ripped

==== Контрольная сумма отчёта 46BE486CAC4BB5FE0E81A5DBB310548C2A38F419B38AC460D8382B3595EE57BF ====

CD two:Exact Audio Copy V1.0 beta 3 from 29. August 2011

Отчёт EAC об извлечении, выполненном 28. июня 2012, 20:16

XII Alfonso / Charles Darwin Vol2

Дисковод: TSSTcorpCDDVDW TS-L633J Adapter: 0 ID: 1

Режим чтения : ДостоверностьИспользование точного потока : ДаОтключение кэша аудио : ДаИспользование указателей C2 : Нет

Коррекция смещения при чтении : 6Способность читать области Lead-in и Lead-out : НетЗаполнение пропущенных сэмплов тишиной : ДаУдаление блоков с тишиной в начале и конце : НетПри вычислениях CRC использовались нулевые сэмплы : ДаИнтерфейс : Установленный внешний ASPI-интерфейс

Выходной формат : Пользовательский кодировщикВыбранный битрейт : 128 kBit/sКачество : ВысокийДобавление ID3-тега : НетУтилита сжатия : C:\Program Files\Exact Audio Copy\FLAC\FLAC.EXEДополнительные параметры : -6 -V -T "ARTIST=%artist%" -T "TITLE=%title%" -T "ALBUM=%albumtitle%" -T "DATE=%year%" -T "TRACKNUMBER=%tracknr%" -T "GENRE=%genre%" -T "COMMENT=%comment%" -T "BAND=%albuminterpret%" -T "ALBUMARTIST=%albuminterpret%" -T "COMPOSER=%composer%" %haslyrics%--tag-from-file=LYRICS="%lyricsfile%"%haslyrics% -T "DISCNUMBER=%cdnumber%" -T "TOTALDISCS=%totalcds%" -T "TOTALTRACKS=%numtracks%" %hascover%--picture="%coverfile%"%hascover% %source% -o %dest%

TOC извлечённого CD

Трек | Старт | Длительность | Начальный сектор | Конечный сектор --------------------------------------------------------------------- 1 | 0:00.00 | 1:51.60 | 0 | 8384 2 | 1:51.60 | 3:42.17 | 8385 | 25051 3 | 5:34.02 | 2:55.29 | 25052 | 38205 4 | 8:29.31 | 5:55.30 | 38206 | 64860 5 | 14:24.61 | 5:07.33 | 64861 | 87918 6 | 19:32.19 | 1:11.00 | 87919 | 93243 7 | 20:43.19 | 4:32.14 | 93244 | 113657 8 | 25:15.33 | 4:00.05 | 113658 | 131662 9 | 29:15.38 | 2:56.12 | 131663 | 144874 10 | 32:11.50 | 2:02.25 | 144875 | 154049 11 | 34:14.00 | 2:32.41 | 154050 | 165490 12 | 36:46.41 | 3:55.62 | 165491 | 183177 13 | 40:42.28 | 3:54.48 | 183178 | 200775 14 | 44:37.01 | 6:23.42 | 200776 | 229542 15 | 51:00.43 | 2:35.38 | 229543 | 241205 16 | 53:36.06 | 2:30.12 | 241206 | 252467 17 | 56:06.18 | 0:55.73 | 252468 | 256665 18 | 57:02.16 | 3:05.61 | 256666 | 270601

Характеристики диапазона извлечения и сообщения об ошибках

Выбранный диапазон

Имя файла C:\XII ALFONSO\cd2\XII Alfonso - Charles Darwin Vol2.wav

Пиковый уровень 95.6 % Скорость извлечения 3.0 X Качество диапазона 100.0 % CRC теста F9465247 CRC копии F9465247 Копирование... OK

Ошибок не произошло

AccurateRip: сводка

Трек 1 отсутствует в базе данныхТрек 2 отсутствует в базе данныхТрек 3 отсутствует в базе данныхТрек 4 отсутствует в базе данныхТрек 5 отсутствует в базе данныхТрек 6 отсутствует в базе данныхТрек 7 отсутствует в базе данныхТрек 8 отсутствует в базе данныхТрек 9 отсутствует в базе данныхТрек 10 отсутствует в базе данныхТрек 11 отсутствует в базе данныхТрек 12 отсутствует в базе данныхТрек 13 отсутствует в базе данныхТрек 14 отсутствует в базе данныхТрек 15 отсутствует в базе данныхТрек 16 отсутствует в базе данныхТрек 17 отсутствует в базе данныхТрек 18 отсутствует в базе данных

Ни одного трека нет в базе AccurateRip

Конец отчёта

---- CUETools DB Plugin V2.1.3

[CTDB TOCID: 7g8VvuKNZ.VJWSjCSGWnOmP0Wko-] found, Submit result: 7g8VvuKNZ.VJWSjCSGWnOmP0Wko- has been confirmed[910c7445] (1/1) Accurately ripped

==== Контрольная сумма отчёта 55A613DFE72D5E61F6572F7729B8E62D521E8D2B73AF58D875BB184C9B77FD0B ====

CD three:Exact Audio Copy V1.0 beta 3 from 29. August 2011

Отчёт EAC об извлечении, выполненном 28. июня 2012, 21:03

XII Alfonso / Charles Darwin Vol3

Дисковод: TSSTcorpCDDVDW TS-L633J Adapter: 0 ID: 1

Режим чтения : ДостоверностьИспользование точного потока : ДаОтключение кэша аудио : ДаИспользование указателей C2 : Нет

Коррекция смещения при чтении : 6Способность читать области Lead-in и Lead-out : НетЗаполнение пропущенных сэмплов тишиной : ДаУдаление блоков с тишиной в начале и конце : НетПри вычислениях CRC использовались нулевые сэмплы : ДаИнтерфейс : Установленный внешний ASPI-интерфейс

Выходной формат : Пользовательский кодировщикВыбранный битрейт : 128 kBit/sКачество : ВысокийДобавление ID3-тега : НетУтилита сжатия : C:\Program Files\Exact Audio Copy\FLAC\FLAC.EXEДополнительные параметры : -6 -V -T "ARTIST=%artist%" -T "TITLE=%title%" -T "ALBUM=%albumtitle%" -T "DATE=%year%" -T "TRACKNUMBER=%tracknr%" -T "GENRE=%genre%" -T "COMMENT=%comment%" -T "BAND=%albuminterpret%" -T "ALBUMARTIST=%albuminterpret%" -T "COMPOSER=%composer%" %haslyrics%--tag-from-file=LYRICS="%lyricsfile%"%haslyrics% -T "DISCNUMBER=%cdnumber%" -T "TOTALDISCS=%totalcds%" -T "TOTALTRACKS=%numtracks%" %hascover%--picture="%coverfile%"%hascover% %source% -o %dest%

TOC извлечённого CD

Трек | Старт | Длительность | Начальный сектор | Конечный сектор --------------------------------------------------------------------- 1 | 0:00.00 | 0:53.36 | 0 | 4010 2 | 0:53.36 | 4:49.17 | 4011 | 25702 3 | 5:42.53 | 2:36.18 | 25703 | 37420 4 | 8:18.71 | 6:37.60 | 37421 | 67255 5 | 14:56.56 | 1:26.48 | 67256 | 73753 6 | 16:23.29 | 0:56.36 | 73754 | 77989 7 | 17:19.65 | 4:00.71 | 77990 | 96060 8 | 21:20.61 | 4:03.07 | 96061 | 114292 9 | 25:23.68 | 5:29.17 | 114293 | 138984 10 | 30:53.10 | 0:57.14 | 138985 | 143273 11 | 31:50.24 | 7:01.37 | 143274 | 174885 12 | 38:51.61 | 2:46.30 | 174886 | 187365 13 | 41:38.16 | 6:23.04 | 187366 | 216094 14 | 48:01.20 | 4:53.34 | 216095 | 238103 15 | 52:54.54 | 0:55.30 | 238104 | 242258 16 | 53:50.09 | 1:35.46 | 242259 | 249429 17 | 55:25.55 | 4:39.54 | 249430 | 270408

Характеристики диапазона извлечения и сообщения об ошибках

Выбранный диапазон

Имя файла C:\XII ALFONSO\cd3\XII Alfonso - Charles Darwin Vol3.wav

Пиковый уровень 95.6 % Скорость извлечения 3.0 X Качество диапазона 100.0 % CRC теста 28CAD96B CRC копии 28CAD96B Копирование... OK

Ошибок не произошло

AccurateRip: сводка

Трек 1 отсутствует в базе данныхТрек 2 отсутствует в базе данныхТрек 3 отсутствует в базе данныхТрек 4 отсутствует в базе данныхТрек 5 отсутствует в базе данныхТрек 6 отсутствует в базе данныхТрек 7 отсутствует в базе данныхТрек 8 отсутствует в базе данныхТрек 9 отсутствует в базе данныхТрек 10 отсутствует в базе данныхТрек 11 отсутствует в базе данныхТрек 12 отсутствует в базе данныхТрек 13 отсутствует в базе данныхТрек 14 отсутствует в базе данныхТрек 15 отсутствует в базе данныхТрек 16 отсутствует в базе данныхТрек 17 отсутствует в базе данных

Ни одного трека нет в базе AccurateRip

Конец отчёта

---- CUETools DB Plugin V2.1.3

[CTDB TOCID: 2ml5LjXVKrmUwJ4OJT.piTvZCTo-] found, Submit result: 2ml5LjXVKrmUwJ4OJT.piTvZCTo- has been confirmed[56499b8f] (1/1) Accurately ripped

==== Контрольная сумма отчёта C641D8C4D1FD6EE3396FBFC1260E18263CCE6E6FDA674B76754687494F3CD763 ====
XII ALFONSO's "The Lost Frontier" is a great first album with an ambitious concept. These young musicians from Bordeaux (France) have built a superb work with long instrumental passages, some female vocals, and a Celtic-influenced atmosphere sometimes reminding of Mike OLDFIELD. "Odyssees" is the second album in 1999, presenting the same sort of beautiful and majestuous music that could have been heard three years ago.

"Claude Monet Vol. 1" is the first delivery of a trilogy dedicated to the last years of the french impressionist painter's Claude Monet life, for the French group XII ALFONSO. This first one surrenders it occupies from the years 1883 to 1889. The relative influences to progressive bands that are appreciated in the album, I believe that they would come mainly from French formations as VITAL MINIMUM or Jean Pascal BOFFO, besides others as Mike OLDFIELD and Steve HACKETT. Those that have not been satisfied with XII ALFONSO's first two albums, they can prove with this third that sincerely I believe that it is a great disk.
http://www.progarchives.com/artist.asp?id=354
French group XII Alfonso gathered musicians who used to play with Pink Floyd, Supertramp, Mike Oldfield, Genesis or Phil Collins to perform and record an original creation : « Charles Darwin », a triple album telling in 22 songs and 30 instrumentals Darwin's life, concepts and works, 3 CD in a deluxe digibook including a 76 page colour booklet : a travel diary through Darwin's life.
THE VOICES

Maggie Reilly
Elliott Murphy
Gérard Lenorman
Huong Thanh
Pierre Emberger, singer of Freegh,
Ronnie Caryl
Amy Keys
Alistair Gordon
Jayney Klimek

BRASS AND WINDS

John A. Helliwell, Supertramp’s legendary saxophonist
Raphaël Ravenscroft
Terry Oldfield
John Hackett

GUITARS

Tim Renwick
Francis Dunnery, It Bites' first guitarist
Robin Boult
Ian Bairnson

BASSES

David Paton
Mickaël Manring

KEYBOARDS

Mickey Simmonds
Ton Scherpenzeel


Трекер:  [ 29-Июн-2012 10:22 ]

  

Скачать .torrent

Размер .torrent файла 12 KB


Размер: 1.08 GB
Хэш (hash) релиза: 562501997b61409569f3a11256cd27c5d5f42e57

Торренты, похожие на XII Alfonso - Charles Darwin скачать торрент

Форум Название Автор Размер S L Добавлен
Rосk | Mеtаl | Аltеrnаtivе, Рunk, Indереndеnt (mр3) ·· (Progressive rock) XII Alfonso - Charles Darwin - 2012, MP3, 320 kbps Umakiro 438234139418 MB 0 0 1335368460

18:41

25-Апр-12

Еще никто не оставлял запись к записи скачать торрент XII Alfonso - Charles Darwin . Будь первым!

!Обратная связь