Скачать через торрент музыку Edward Sharpe & The Magnetic Zeros - Discography Дискография - 5 Releases - 2009-2012, FLAC бесплатно без регистрации torrent

Если у вас наблюдаются проблемы со скриншотами, переходом по ссылками, скачиванием торрентов - проблемы в блокировщике рекламы AdBlock. #хорошегоДня!


Статистика раздачи
Размер:  1.62 GB   |    Зарегистрирован:  5 лет 1 месяц   |    .torrent скачан:  54 раза   |   
Раздают:  1  
   
Загрузка...
 
Автор Сообщение

_N_

avatar _N_


Edward Sharpe & The Magnetic Zeros
Edward Sharpe & The Magnetic Zeros is an American band led by Alex Ebert, vocalist of the power pop group Ima Robot. Their first full-length recording, Up from Below, was released digitally on July 7, 2009 and physically on July 14, 2009 on Community Records. Their first show as a full band was played July 18, 2007 at The Troubadour in West Hollywood, California. Their second full-length album, Here, was released on May 29, 2012.

Жанр: Indie Rock / Folk Rock | Год выпуска диска: 2009-2012 | Производитель диска: USA
Аудио кодек: FLAC (*.flac) | Тип рипа: tracks / tracks+.cue | Битрейт аудио: Lossless | Продолжительность: 03:16:58 |
Источник рипа: what.cd
Tracklist:

01. 40 Day Dream
02. Janglin'
03. Up From Below
04. Carries On
05. Jade
06. Home
07. Desert Song
08. Black Water
09. I Come In Please
10. Simplest Love
11. Kisses Over Babylon
12. Brother
13. Om Nashi Me
  
Exact Audio Copy V1.0 beta 2 from 29. April 2011

EAC extraction logfile from 5. June 2012, 16:55

Edward Sharpe & The Magnetic Zeros / Up From Below

Used drive : Optiarc DVD RW AD-7590A Adapter: 1 ID: 0

Read mode : SecureUtilize accurate stream : YesDefeat audio cache : YesMake use of C2 pointers : No

Read offset correction : 48Overread into Lead-In and Lead-Out : NoFill up missing offset samples with silence : YesDelete leading and trailing silent blocks : NoNull samples used in CRC calculations : YesUsed interface : Native Win32 interface for Win NT & 2000Gap handling : Appended to previous track

Used output format : User Defined EncoderSelected bitrate : 1024 kBit/sQuality : HighAdd ID3 tag : NoCommand line compressor : C:\Program Files (x86)\Exact Audio Copy\Flac\flac.exeAdditional command line options : -8 -V -T "ARTIST=%artist%" -T "TITLE=%title%" -T "ALBUM=%albumtitle%" -T "DATE=%year%" -T "TRACKNUMBER=%tracknr%" -T "GENRE=%genre%" -T "PERFORMER=%albuminterpret%" -T "COMPOSER=%composer%" %haslyrics%--tag-from-file=LYRICS

TOC of the extracted CD

Track | Start | Length | Start sector | End sector --------------------------------------------------------- 1 | 0:00.00 | 3:53.44 | 0 | 17518 2 | 3:53.44 | 3:49.45 | 17519 | 34738 3 | 7:43.14 | 4:10.21 | 34739 | 53509 4 | 11:53.35 | 4:31.32 | 53510 | 73866 5 | 16:24.67 | 3:43.44 | 73867 | 90635 6 | 20:08.36 | 5:06.24 | 90636 | 113609 7 | 25:14.60 | 4:30.20 | 113610 | 133879 8 | 29:45.05 | 3:50.48 | 133880 | 151177 9 | 33:35.53 | 5:06.42 | 151178 | 174169 10 | 38:42.20 | 2:52.58 | 174170 | 187127 11 | 41:35.03 | 5:15.59 | 187128 | 210811 12 | 46:50.62 | 3:57.22 | 210812 | 228608 13 | 50:48.09 | 6:16.05 | 228609 | 256813

Track 1

Filename C:\EAC rips\Edward Sharpe & The Magnetic Zeros - Up From Below (2009) - FLAC\01 - 40 Day Dream.wav

Pre-gap length 0:00:02.00

Peak level 100.0 % Extraction speed 2.7 X Track quality 100.0 % Test CRC 5580BBB6 Copy CRC 5580BBB6 Accurately ripped (confidence 2) [7E686AD6] (AR v2) Copy OK

Track 2

Filename C:\EAC rips\Edward Sharpe & The Magnetic Zeros - Up From Below (2009) - FLAC\02 - Janglin'.wav

Peak level 100.0 % Extraction speed 3.0 X Track quality 100.0 % Test CRC F340DE44 Copy CRC F340DE44 Accurately ripped (confidence 2) [EC4D292F] (AR v2) Copy OK

Track 3

Filename C:\EAC rips\Edward Sharpe & The Magnetic Zeros - Up From Below (2009) - FLAC\03 - Up from Below.wav

Peak level 100.0 % Extraction speed 3.3 X Track quality 100.0 % Test CRC EB863A30 Copy CRC EB863A30 Accurately ripped (confidence 2) [631E6FEC] (AR v2) Copy OK

Track 4

Filename C:\EAC rips\Edward Sharpe & The Magnetic Zeros - Up From Below (2009) - FLAC\04 - Carries On.wav

Peak level 100.0 % Extraction speed 3.6 X Track quality 100.0 % Test CRC 9777F81F Copy CRC 9777F81F Accurately ripped (confidence 2) [24FFCAD9] (AR v2) Copy OK

Track 5

Filename C:\EAC rips\Edward Sharpe & The Magnetic Zeros - Up From Below (2009) - FLAC\05 - Jade.wav

Peak level 100.0 % Extraction speed 3.7 X Track quality 100.0 % Test CRC 15753CF9 Copy CRC 15753CF9 Accurately ripped (confidence 2) [1CF1942A] (AR v2) Copy OK

Track 6

Filename C:\EAC rips\Edward Sharpe & The Magnetic Zeros - Up From Below (2009) - FLAC\06 - Home.wav

Peak level 100.0 % Extraction speed 3.7 X Track quality 100.0 % Test CRC F7BD0BD3 Copy CRC F7BD0BD3 Accurately ripped (confidence 2) [75F43B6D] (AR v2) Copy OK

Track 7

Filename C:\EAC rips\Edward Sharpe & The Magnetic Zeros - Up From Below (2009) - FLAC\07 - Desert Song.wav

Peak level 100.0 % Extraction speed 3.7 X Track quality 99.9 % Test CRC 2E85D716 Copy CRC 2E85D716 Accurately ripped (confidence 2) [85F7AC4A] (AR v2) Copy OK

Track 8

Filename C:\EAC rips\Edward Sharpe & The Magnetic Zeros - Up From Below (2009) - FLAC\08 - Black Water.wav

Peak level 100.0 % Extraction speed 4.4 X Track quality 100.0 % Test CRC 78B78286 Copy CRC 78B78286 Accurately ripped (confidence 2) [50A7D779] (AR v2) Copy OK

Track 9

Filename C:\EAC rips\Edward Sharpe & The Magnetic Zeros - Up From Below (2009) - FLAC\09 - Come In Please.wav

Peak level 100.0 % Extraction speed 4.8 X Track quality 100.0 % Test CRC 9BBBCED9 Copy CRC 9BBBCED9 Accurately ripped (confidence 2) [02C89647] (AR v2) Copy OK

Track 10

Filename C:\EAC rips\Edward Sharpe & The Magnetic Zeros - Up From Below (2009) - FLAC\10 - Simplest Love.wav

Peak level 100.0 % Extraction speed 4.6 X Track quality 100.0 % Test CRC 8C209123 Copy CRC 8C209123 Accurately ripped (confidence 2) [4BA4F3F1] (AR v2) Copy OK

Track 11

Filename C:\EAC rips\Edward Sharpe & The Magnetic Zeros - Up From Below (2009) - FLAC\11 - Kisses Over Babylon.wav

Peak level 100.0 % Extraction speed 5.2 X Track quality 100.0 % Test CRC C105551E Copy CRC C105551E Accurately ripped (confidence 2) [71B0ADB4] (AR v2) Copy OK

Track 12

Filename C:\EAC rips\Edward Sharpe & The Magnetic Zeros - Up From Below (2009) - FLAC\12 - Brother.wav

Peak level 94.3 % Extraction speed 4.2 X Track quality 99.9 % Test CRC 49137A8E Copy CRC 49137A8E Accurately ripped (confidence 2) [A3C3611B] (AR v2) Copy OK

Track 13

Filename C:\EAC rips\Edward Sharpe & The Magnetic Zeros - Up From Below (2009) - FLAC\13 - Om Nashi Me.wav

Peak level 100.0 % Extraction speed 4.9 X Track quality 99.9 % Test CRC 2C3E037B Copy CRC 2C3E037B Accurately ripped (confidence 2) [3B7D6209] (AR v2) Copy OK

All tracks accurately ripped

No errors occurred

End of status report

==== Log checksum E330E3BA0F651BA02D9624F800DC2AA8B7B8E1F362D3309699CD395E02EFE54D ====
  
REM GENRE IndieREM DATE 2009REM DISCID A70D600DREM COMMENT "ExactAudioCopy v1.0b2"PERFORMER "Edward Sharpe & The Magnetic Zeros"TITLE "Up From Below"FILE "01 - 40 Day Dream.wav" WAVE TRACK 01 AUDIO TITLE "40 Day Dream" PERFORMER "Edward Sharpe & The Magnetic Zeros" ISRC USVR90954201 INDEX 01 00:00:00FILE "02 - Janglin'.wav" WAVE TRACK 02 AUDIO TITLE "Janglin'" PERFORMER "Edward Sharpe & The Magnetic Zeros" ISRC USVR90954202 INDEX 01 00:00:00FILE "03 - Up from Below.wav" WAVE TRACK 03 AUDIO TITLE "Up from Below" PERFORMER "Edward Sharpe & The Magnetic Zeros" ISRC USVR90954203 INDEX 01 00:00:00FILE "04 - Carries On.wav" WAVE TRACK 04 AUDIO TITLE "Carries On" PERFORMER "Edward Sharpe & The Magnetic Zeros" ISRC USVR90954204 INDEX 01 00:00:00FILE "05 - Jade.wav" WAVE TRACK 05 AUDIO TITLE "Jade" PERFORMER "Edward Sharpe & The Magnetic Zeros" ISRC USVR90954205 INDEX 01 00:00:00FILE "06 - Home.wav" WAVE TRACK 06 AUDIO TITLE "Home" PERFORMER "Edward Sharpe & The Magnetic Zeros" ISRC USVR90954206 INDEX 01 00:00:00FILE "07 - Desert Song.wav" WAVE TRACK 07 AUDIO TITLE "Desert Song" PERFORMER "Edward Sharpe & The Magnetic Zeros" ISRC USVR90954207 INDEX 01 00:00:00FILE "08 - Black Water.wav" WAVE TRACK 08 AUDIO TITLE "Black Water" PERFORMER "Edward Sharpe & The Magnetic Zeros" ISRC USVR90954208 INDEX 01 00:00:00FILE "09 - Come In Please.wav" WAVE TRACK 09 AUDIO TITLE "Come In Please" PERFORMER "Edward Sharpe & The Magnetic Zeros" ISRC USVR90954209 INDEX 01 00:00:00FILE "10 - Simplest Love.wav" WAVE TRACK 10 AUDIO TITLE "Simplest Love" PERFORMER "Edward Sharpe & The Magnetic Zeros" ISRC USVR90954210 INDEX 01 00:00:00FILE "11 - Kisses Over Babylon.wav" WAVE TRACK 11 AUDIO TITLE "Kisses Over Babylon" PERFORMER "Edward Sharpe & The Magnetic Zeros" ISRC USVR90954211 INDEX 01 00:00:00FILE "12 - Brother.wav" WAVE TRACK 12 AUDIO TITLE "Brother" PERFORMER "Edward Sharpe & The Magnetic Zeros" ISRC USVR90954212 INDEX 01 00:00:00FILE "13 - Om Nashi Me.wav" WAVE TRACK 13 AUDIO TITLE "Om Nashi Me" PERFORMER "Edward Sharpe & The Magnetic Zeros" ISRC USVR90954213 INDEX 01 00:00:00
Tracklist:

01. 40 Day Dream
02. Janglin'
03. Up From Below
04. Carries On
05. Jade
06. Home
07. Desert Song
08. Black Water
09. I Come In Please
10. Simplest Love
11. Kisses Over Babylon
12. Brother
13. Om Nashi Me
  
Exact Audio Copy V1.0 beta 3 from 29. August 2011

EAC extraction logfile from 3. May 2012, 12:43

Edward Sharpe & The Magnetic Zeros / Up From Below

Used drive : HL-DT-STDVDRAM GSA-T50N Adapter: 0 ID: 1

Read mode : SecureUtilize accurate stream : YesDefeat audio cache : YesMake use of C2 pointers : No

Read offset correction : 667Overread into Lead-In and Lead-Out : NoFill up missing offset samples with silence : YesDelete leading and trailing silent blocks : NoNull samples used in CRC calculations : YesUsed interface : Native Win32 interface for Win NT & 2000Gap handling : Appended to previous track

Used output format : User Defined EncoderSelected bitrate : 1024 kBit/sQuality : HighAdd ID3 tag : NoCommand line compressor : C:\Program Files\Exact Audio Copy\FLAC\FLAC.EXEAdditional command line options : -8 -V -T "ARTIST=%artist%" -T "TITLE=%title%" -T "ALBUM=%albumtitle%" -T "DATE=%year%" -T "TRACKNUMBER=%tracknr%" -T "GENRE=%genre%" -T "PERFORMER=%albuminterpret%" -T "COMPOSER=%composer%" %haslyrics%--tag-from-file=LYRICS="%lyricsfile%"%haslyrics% -T "ALBUMARTIST=%albumartist%" -T "ALBUM ARTIST=%albumartist%" -T "DISCNUMBER=%cdnumber%" -T "TOTALDISCS=%totalcds%" -T "TOTALTRACKS=%numtracks%" -T "COMMENT=%comment%" %source% -o %dest%

TOC of the extracted CD

Track | Start | Length | Start sector | End sector --------------------------------------------------------- 1 | 0:00.00 | 3:53.45 | 0 | 17519 2 | 3:53.45 | 3:49.45 | 17520 | 34739 3 | 7:43.15 | 4:10.21 | 34740 | 53510 4 | 11:53.36 | 4:31.32 | 53511 | 73867 5 | 16:24.68 | 3:43.44 | 73868 | 90636 6 | 20:08.37 | 5:06.24 | 90637 | 113610 7 | 25:14.61 | 4:30.20 | 113611 | 133880 8 | 29:45.06 | 3:50.48 | 133881 | 151178 9 | 33:35.54 | 5:06.42 | 151179 | 174170 10 | 38:42.21 | 2:52.58 | 174171 | 187128 11 | 41:35.04 | 5:15.59 | 187129 | 210812 12 | 46:50.63 | 3:57.22 | 210813 | 228609 13 | 50:48.10 | 6:16.05 | 228610 | 256814

Track 1

Filename H:\EAC Rips + Torrent Folders\Edward Sharpe & The Magnetic Zeros - Up From Below (2009) FLAC\01 - 40 Day Dream.wav

Pre-gap length 0:00:02.00

Peak level 100.0 % Extraction speed 2.1 X Track quality 100.0 % Test CRC 88B8D532 Copy CRC 88B8D532 Accurately ripped (confidence 12) [119B1F61] (AR v1) Copy OK

Track 2

Filename H:\EAC Rips + Torrent Folders\Edward Sharpe & The Magnetic Zeros - Up From Below (2009) FLAC\02 - Janglin'.wav

Peak level 100.0 % Extraction speed 2.3 X Track quality 100.0 % Test CRC 7773BAA8 Copy CRC 7773BAA8 Accurately ripped (confidence 12) [3B686A97] (AR v1) Copy OK

Track 3

Filename H:\EAC Rips + Torrent Folders\Edward Sharpe & The Magnetic Zeros - Up From Below (2009) FLAC\03 - Up from Below.wav

Peak level 100.0 % Extraction speed 2.5 X Track quality 100.0 % Test CRC 34945EDF Copy CRC 34945EDF Accurately ripped (confidence 12) [E0DB04ED] (AR v1) Copy OK

Track 4

Filename H:\EAC Rips + Torrent Folders\Edward Sharpe & The Magnetic Zeros - Up From Below (2009) FLAC\04 - Carries On.wav

Peak level 100.0 % Extraction speed 2.8 X Track quality 100.0 % Test CRC 2F3D4281 Copy CRC 2F3D4281 Accurately ripped (confidence 12) [5A1DF282] (AR v1) Copy OK

Track 5

Filename H:\EAC Rips + Torrent Folders\Edward Sharpe & The Magnetic Zeros - Up From Below (2009) FLAC\05 - Jade.wav

Peak level 100.0 % Extraction speed 2.9 X Track quality 100.0 % Test CRC C70A96DE Copy CRC C70A96DE Accurately ripped (confidence 12) [95EAE44E] (AR v1) Copy OK

Track 6

Filename H:\EAC Rips + Torrent Folders\Edward Sharpe & The Magnetic Zeros - Up From Below (2009) FLAC\06 - Home.wav

Peak level 100.0 % Extraction speed 3.1 X Track quality 100.0 % Test CRC A0B50BA8 Copy CRC A0B50BA8 Accurately ripped (confidence 13) [EA2FE66F] (AR v1) Copy OK

Track 7

Filename H:\EAC Rips + Torrent Folders\Edward Sharpe & The Magnetic Zeros - Up From Below (2009) FLAC\07 - Desert Song.wav

Peak level 100.0 % Extraction speed 2.9 X Track quality 99.9 % Test CRC 7B3C9DEC Copy CRC 7B3C9DEC Accurately ripped (confidence 12) [9978D8FA] (AR v1) Copy OK

Track 8

Filename H:\EAC Rips + Torrent Folders\Edward Sharpe & The Magnetic Zeros - Up From Below (2009) FLAC\08 - Black Water.wav

Peak level 99.7 % Extraction speed 3.3 X Track quality 100.0 % Test CRC A256D027 Copy CRC A256D027 Accurately ripped (confidence 12) [C12B6FB0] (AR v1) Copy OK

Track 9

Filename H:\EAC Rips + Torrent Folders\Edward Sharpe & The Magnetic Zeros - Up From Below (2009) FLAC\09 - Come In Please.wav

Pre-gap length 0:00:04.08

Peak level 100.0 % Extraction speed 3.5 X Track quality 100.0 % Test CRC 87D4EEC5 Copy CRC 87D4EEC5 Accurately ripped (confidence 12) [A6CB96FB] (AR v1) Copy OK

Track 10

Filename H:\EAC Rips + Torrent Folders\Edward Sharpe & The Magnetic Zeros - Up From Below (2009) FLAC\10 - Simplest Love.wav

Peak level 99.7 % Extraction speed 3.5 X Track quality 100.0 % Test CRC 7923A368 Copy CRC 7923A368 Accurately ripped (confidence 12) [BB8357FF] (AR v1) Copy OK

Track 11

Filename H:\EAC Rips + Torrent Folders\Edward Sharpe & The Magnetic Zeros - Up From Below (2009) FLAC\11 - Kisses Over Babylon.wav

Peak level 100.0 % Extraction speed 3.8 X Track quality 100.0 % Test CRC C8AED14F Copy CRC C8AED14F Accurately ripped (confidence 12) [7FD37FCF] (AR v1) Copy OK

Track 12

Filename H:\EAC Rips + Torrent Folders\Edward Sharpe & The Magnetic Zeros - Up From Below (2009) FLAC\12 - Brother.wav

Peak level 87.8 % Extraction speed 3.7 X Track quality 100.0 % Test CRC 6B22B736 Copy CRC 6B22B736 Accurately ripped (confidence 12) [ABAEC9C4] (AR v1) Copy OK

Track 13

Filename H:\EAC Rips + Torrent Folders\Edward Sharpe & The Magnetic Zeros - Up From Below (2009) FLAC\13 - Om Nashi Me.wav

Peak level 100.0 % Extraction speed 4.0 X Track quality 100.0 % Test CRC 8E05DB12 Copy CRC 8E05DB12 Accurately ripped (confidence 12) [A30F6F7B] (AR v1) Copy OK

All tracks accurately ripped

No errors occurred

End of status report

---- CUETools DB Plugin V2.1.3

[CTDB TOCID: Gro0HfdJjiWdMGAZshy9kV3B.Bs-] found, Submit result: Gro0HfdJjiWdMGAZshy9kV3B.Bs- has been confirmed[f0d28209] (4/4) Accurately ripped

==== Log checksum B51C114B3D23169C8405BC204959920A6EB4EF3714AFCA04079FA54171E50A6D ====
  
REM GENRE IndieREM DATE 2009REM DISCID A70D600DREM COMMENT "ExactAudioCopy v1.0b3"PERFORMER "Edward Sharpe & The Magnetic Zeros"TITLE "Up From Below"FILE "01 - 40 Day Dream.wav" WAVE TRACK 01 AUDIO TITLE "40 Day Dream" PERFORMER "Edward Sharpe & The Magnetic Zeros" ISRC USVR90954201 INDEX 01 00:00:00FILE "02 - Janglin'.wav" WAVE TRACK 02 AUDIO TITLE "Janglin'" PERFORMER "Edward Sharpe & The Magnetic Zeros" ISRC USVR90954202 INDEX 01 00:00:00FILE "03 - Up from Below.wav" WAVE TRACK 03 AUDIO TITLE "Up from Below" PERFORMER "Edward Sharpe & The Magnetic Zeros" ISRC USVR90954203 INDEX 01 00:00:00FILE "04 - Carries On.wav" WAVE TRACK 04 AUDIO TITLE "Carries On" PERFORMER "Edward Sharpe & The Magnetic Zeros" ISRC USVR90954204 INDEX 01 00:00:00FILE "05 - Jade.wav" WAVE TRACK 05 AUDIO TITLE "Jade" PERFORMER "Edward Sharpe & The Magnetic Zeros" ISRC USVR90954205 INDEX 01 00:00:00FILE "06 - Home.wav" WAVE TRACK 06 AUDIO TITLE "Home" PERFORMER "Edward Sharpe & The Magnetic Zeros" ISRC USVR90954206 INDEX 01 00:00:00FILE "07 - Desert Song.wav" WAVE TRACK 07 AUDIO TITLE "Desert Song" PERFORMER "Edward Sharpe & The Magnetic Zeros" ISRC USVR90954207 INDEX 01 00:00:00FILE "08 - Black Water.wav" WAVE TRACK 08 AUDIO TITLE "Black Water" PERFORMER "Edward Sharpe & The Magnetic Zeros" ISRC USVR90954208 INDEX 01 00:00:00 TRACK 09 AUDIO TITLE "Come In Please" PERFORMER "Edward Sharpe & The Magnetic Zeros" ISRC USVR90954209 INDEX 00 03:46:40FILE "09 - Come In Please.wav" WAVE INDEX 01 00:00:00FILE "10 - Simplest Love.wav" WAVE TRACK 10 AUDIO TITLE "Simplest Love" PERFORMER "Edward Sharpe & The Magnetic Zeros" ISRC USVR90954210 INDEX 01 00:00:00FILE "11 - Kisses Over Babylon.wav" WAVE TRACK 11 AUDIO TITLE "Kisses Over Babylon" PERFORMER "Edward Sharpe & The Magnetic Zeros" ISRC USVR90954211 INDEX 01 00:00:00FILE "12 - Brother.wav" WAVE TRACK 12 AUDIO TITLE "Brother" PERFORMER "Edward Sharpe & The Magnetic Zeros" ISRC USVR90954212 INDEX 01 00:00:00FILE "13 - Om Nashi Me.wav" WAVE TRACK 13 AUDIO TITLE "Om Nashi Me" PERFORMER "Edward Sharpe & The Magnetic Zeros" ISRC USVR90954213 INDEX 01 00:00:00
Tracklist:

01. Man On Fire
02. That's What's Up
03. I Don't Wanna Pray
04. Mayla
05. Dear Believer
06. Child
07. One Love To Another
08. Fiya Wata
09. All Wash Out
  
Exact Audio Copy V1.0 beta 3 from 29. August 2011

EAC extraction logfile from 30. May 2012, 0:29

Edward Sharpe & The Magnetic Zeros / Here

Used drive : hp DVD A DS8A5LH Adapter: 0 ID: 1

Read mode : SecureUtilize accurate stream : YesDefeat audio cache : YesMake use of C2 pointers : No

Read offset correction : 6Overread into Lead-In and Lead-Out : NoFill up missing offset samples with silence : YesDelete leading and trailing silent blocks : NoNull samples used in CRC calculations : YesUsed interface : Native Win32 interface for Win NT & 2000Gap handling : Appended to previous track

Used output format : User Defined EncoderSelected bitrate : 1024 kBit/sQuality : HighAdd ID3 tag : NoCommand line compressor : C:\Program Files (x86)\Exact Audio Copy\Flac\flac.exeAdditional command line options : -8 -V -T "ARTIST=%artist%" -T "TITLE=%title%" -T "ALBUM=%albumtitle%" -T "DATE=%year%" -T "TRACKNUMBER=%tracknr%" -T "GENRE=%genre%" -T "PERFORMER=%albuminterpret%" -T "COMPOSER=%composer%" %haslyrics%--tag-from-file=LYRICS="%lyricsfile%"%haslyrics% -T "ALBUMARTIST=%albumartist%" -T "ALBUM ARTIST=%albumartist%" -T "DISCNUMBER=%cdnumber%" -T "TOTALDISCS=%totalcds%" -T "TOTALTRACKS=%numtracks%" -T "COMMENT=%comment%" %source% -o %dest%

TOC of the extracted CD

Track | Start | Length | Start sector | End sector --------------------------------------------------------- 1 | 0:00.00 | 4:19.07 | 0 | 19431 2 | 4:19.07 | 3:52.10 | 19432 | 36841 3 | 8:11.17 | 3:26.59 | 36842 | 52350 4 | 11:38.01 | 5:42.35 | 52351 | 78035 5 | 17:20.36 | 4:46.44 | 78036 | 99529 6 | 22:07.05 | 3:09.62 | 99530 | 113766 7 | 25:16.67 | 3:32.15 | 113767 | 129681 8 | 28:49.07 | 4:12.66 | 129682 | 148647 9 | 33:01.73 | 4:40.69 | 148648 | 169716

Track 1

Filename C:\Users\Anthony\Desktop\Edward Sharpe & The Magnetic Zeros - Here\01 Man On Fire.wav

Pre-gap length 0:00:02.00

Peak level 97.7 % Extraction speed 2.6 X Track quality 100.0 % Test CRC 5BA3108C Copy CRC 5BA3108C Track not present in AccurateRip database Copy OK

Track 2

Filename C:\Users\Anthony\Desktop\Edward Sharpe & The Magnetic Zeros - Here\02 That's What's Up.wav

Peak level 97.0 % Extraction speed 2.9 X Track quality 100.0 % Test CRC 2F6357E1 Copy CRC 2F6357E1 Track not present in AccurateRip database Copy OK

Track 3

Filename C:\Users\Anthony\Desktop\Edward Sharpe & The Magnetic Zeros - Here\03 I Don't Wanna Pray.wav

Peak level 98.8 % Extraction speed 2.5 X Track quality 99.9 % Test CRC E00930A5 Copy CRC E00930A5 Track not present in AccurateRip database Copy OK

Track 4

Filename C:\Users\Anthony\Desktop\Edward Sharpe & The Magnetic Zeros - Here\04 Mayla.wav

Peak level 98.8 % Extraction speed 3.6 X Track quality 100.0 % Test CRC 516EF306 Copy CRC 516EF306 Track not present in AccurateRip database Copy OK

Track 5

Filename C:\Users\Anthony\Desktop\Edward Sharpe & The Magnetic Zeros - Here\05 Dear Believer.wav

Peak level 96.6 % Extraction speed 3.8 X Track quality 100.0 % Test CRC 7A3E6CD7 Copy CRC 7A3E6CD7 Track not present in AccurateRip database Copy OK

Track 6

Filename C:\Users\Anthony\Desktop\Edward Sharpe & The Magnetic Zeros - Here\06 Child.wav

Peak level 97.7 % Extraction speed 3.8 X Track quality 100.0 % Test CRC F9168A59 Copy CRC F9168A59 Track not present in AccurateRip database Copy OK

Track 7

Filename C:\Users\Anthony\Desktop\Edward Sharpe & The Magnetic Zeros - Here\07 One Love To Another.wav

Peak level 97.7 % Extraction speed 4.0 X Track quality 100.0 % Test CRC EC983546 Copy CRC EC983546 Track not present in AccurateRip database Copy OK

Track 8

Filename C:\Users\Anthony\Desktop\Edward Sharpe & The Magnetic Zeros - Here\08 Fiya Wata.wav

Peak level 97.7 % Extraction speed 4.3 X Track quality 100.0 % Test CRC D5923A71 Copy CRC D5923A71 Track not present in AccurateRip database Copy OK

Track 9

Filename C:\Users\Anthony\Desktop\Edward Sharpe & The Magnetic Zeros - Here\09 All Wash Out.wav

Peak level 98.8 % Extraction speed 4.5 X Track quality 100.0 % Test CRC DF46F080 Copy CRC DF46F080 Track not present in AccurateRip database Copy OK

None of the tracks are present in the AccurateRip database

No errors occurred

End of status report

---- CUETools DB Plugin V2.1.3

[CTDB TOCID: R.PffCGGyVQnRkmy2IcQkFkm8xk-] found, Submit result: already submitted[6aa263b0] (1/1) Accurately ripped

==== Log checksum 55EC54EF4BFCABE4D30956A92A9DB5B3529A8C6C6A971F799BDD24DC8DA0B7FA ====
  
REM GENRE FolkREM DATE 2012REM DISCID 6808D609REM COMMENT "ExactAudioCopy v1.0b3"PERFORMER "Edward Sharpe & The Magnetic Zeros"TITLE "Here"FILE "01 Man On Fire.wav" WAVE TRACK 01 AUDIO TITLE "Man On Fire" PERFORMER "Edward Sharpe & The Magnetic Zeros" ISRC USVR91273501 INDEX 01 00:00:00FILE "02 That's What's Up.wav" WAVE TRACK 02 AUDIO TITLE "That's What's Up" PERFORMER "Edward Sharpe & The Magnetic Zeros" ISRC USVR91273502 INDEX 01 00:00:00FILE "03 I Don't Wanna Pray.wav" WAVE TRACK 03 AUDIO TITLE "I Don't Wanna Pray" PERFORMER "Edward Sharpe & The Magnetic Zeros" ISRC USVR91273503 INDEX 01 00:00:00FILE "04 Mayla.wav" WAVE TRACK 04 AUDIO TITLE "Mayla" PERFORMER "Edward Sharpe & The Magnetic Zeros" ISRC USVR91273504 INDEX 01 00:00:00FILE "05 Dear Believer.wav" WAVE TRACK 05 AUDIO TITLE "Dear Believer" PERFORMER "Edward Sharpe & The Magnetic Zeros" ISRC USVR91273505 INDEX 01 00:00:00FILE "06 Child.wav" WAVE TRACK 06 AUDIO TITLE "Child" PERFORMER "Edward Sharpe & The Magnetic Zeros" ISRC USVR91273506 INDEX 01 00:00:00FILE "07 One Love To Another.wav" WAVE TRACK 07 AUDIO TITLE "One Love To Another" PERFORMER "Edward Sharpe & The Magnetic Zeros" ISRC USVR91273507 INDEX 01 00:00:00FILE "08 Fiya Wata.wav" WAVE TRACK 08 AUDIO TITLE "Fiya Wata" PERFORMER "Edward Sharpe & The Magnetic Zeros" ISRC USVR91273508 INDEX 01 00:00:00FILE "09 All Wash Out.wav" WAVE TRACK 09 AUDIO TITLE "All Wash Out" PERFORMER "Edward Sharpe & The Magnetic Zeros" ISRC USVR91273509 INDEX 01 00:00:00
Tracklist:

01. Man On Fire
02. That's What's Up
03. I Don't Wanna Pray
04. Mayla
05. Dear Believer
06. Child
07. One Love To Another
08. Fiya Wata
09. All Wash Out
Tracklist:

01. 40 Day Dream
02. Geez Louise


Трекер:  [ 28-Июн-2012 08:32 ]

  

Скачать .torrent

Размер .torrent файла 21 KB


Размер: 1.62 GB
Хэш (hash) релиза: 7a3ee4ccb742b114123be75a888aef1e87adaed3

Еще никто не оставлял запись к записи скачать торрент Edward Sharpe & The Magnetic Zeros - Discography Дискография - 5 Releases - 2009-2012, FLAC . Будь первым!

!Обратная связь