Скачать через торрент музыку The Yardbirds - Live Yardbirds! бесплатно без регистрации torrent

Если у вас наблюдаются проблемы со скриншотами, переходом по ссылками, скачиванием торрентов - проблемы в блокировщике рекламы AdBlock. #хорошегоДня!


Статистика раздачи
Размер:  368 MB   |    Зарегистрирован:  5 лет 1 месяц   |    .torrent скачан:  22 раза   |   
Раздают:  1  
   
Загрузка...
 
Автор Сообщение

_N_

avatar _N_


The Yardbirds / Live Yardbirds! (Featuring Jimmy Page)
Жанр: Blues Rock / Psychedelic / Rhythm & Blues / Страна-производитель диска: U.S.A.
Год издания: 1971 (Remastered 2000) / Издатель (лейбл): Mooreland Street Records
Номер по каталогу: MS 33068-2 / Страна: London, England
Аудиокодек: FLAC (*.flac) / Тип рипа: image+.cue
Битрейт аудио: lossless / Продолжительность: 00:50:23
Источник (релизер): I Am / Наличие сканов в содержимом раздачи: да
Треклист:01. Train Kept A-Rollin' (Sound Check) - 02:21
02. Dazed And Confused (Sound Check) - 02:32
03. The Train Kept A-Rollin' - 03:21
04. You're A Better Man Than I / Heart Full Of Soul - 06:53
05. Heart Full Of Soul - 07:08
06. Dazed And Confused - 02:57
07. My Baby - 02:43
08. Over, Under, Sideways, Down - 02:59
09. Drinking Muddy Water - 02:53
10. White Summer (Page Solo Instrumental) - 04:35
11. I'm A Man - 12:00
  
Exact Audio Copy V0.99 prebeta 5 from 4. May 2009

Отчёт EAC об извлечении, выполненном 23. июня 2012, 14:33

The Yardbirds / Live Yardbirds! Featuring Jimmy Page (The Anderson Theatre, NYC, 1968-03-30)

Дисковод: ATAPI iHAP122 9 Adapter: 0 ID: 0

Режим чтения : ДостоверностьИспользование точного потока : ДаОтключение кэша аудио : ДаИспользование указателей C2 : Нет

Коррекция смещения при чтении : 6Способность читать области Lead-in и Lead-out : НетЗаполнение пропущенных сэмплов тишиной : ДаУдаление блоков с тишиной в начале и конце : НетПри вычислениях CRC использовались нулевые сэмплы : ДаИнтерфейс : Встроенный Win32-интерфейс для Win NT/2000

Выходной формат : Внутренние WAV-операцииФормат сэмплов : 44.100 Гц; 16 бит; стерео

TOC извлечённого CD

Трек | Старт | Длительность | Начальный сектор | Конечный сектор --------------------------------------------------------------------- 1 | 0:00.00 | 2:20.52 | 0 | 10551 2 | 2:20.52 | 2:32.15 | 10552 | 21966 3 | 4:52.67 | 3:21.23 | 21967 | 37064 4 | 8:14.15 | 6:52.62 | 37065 | 68026 5 | 15:07.02 | 7:08.03 | 68027 | 100129 6 | 22:15.05 | 2:57.02 | 100130 | 113406 7 | 25:12.07 | 2:43.18 | 113407 | 125649 8 | 27:55.25 | 2:58.52 | 125650 | 139051 9 | 30:54.02 | 2:52.65 | 139052 | 152016 10 | 33:46.67 | 4:35.08 | 152017 | 172649 11 | 38:22.00 | 12:00.42 | 172650 | 226691

Характеристики диапазона извлечения и сообщения об ошибках

Выбранный диапазон

Имя файла D:\Запись\The Yardbirds - Live Yardbirds! (futuring Jimmy Page)\The Yardbirds - Live Yardbirds! Featuring Jimmy Page.wav

Пиковый уровень 100.0 % Качество диапазона 100.0 % CRC теста 99A07EDF CRC копии 99A07EDF Копирование... OK

Ошибок не произошло

AccurateRip: сводка

Трек 1 точность не определена (достоверность 3) [5F33D05E], AccurateRip вернул [E20378F7]Трек 2 точность не определена (достоверность 3) [F455A095], AccurateRip вернул [80CB9B5C]Трек 3 точность не определена (достоверность 3) [9E4FB712], AccurateRip вернул [0D834B2E]Трек 4 точность не определена (достоверность 3) [D8612335], AccurateRip вернул [77332304]Трек 5 точность не определена (достоверность 3) [C40EE269], AccurateRip вернул [256EF663]Трек 6 точность не определена (достоверность 3) [222A979E], AccurateRip вернул [FA38194E]Трек 7 точность не определена (достоверность 3) [DC2A5D6D], AccurateRip вернул [7BD9E4E6]Трек 8 точность не определена (достоверность 3) [BC33EF1E], AccurateRip вернул [E79019E0]Трек 9 точность не определена (достоверность 3) [13FA22C1], AccurateRip вернул [B0A80AB8]Трек 10 точность не определена (достоверность 3) [58B92DFB], AccurateRip вернул [D09BAFA9]Трек 11 точность не определена (достоверность 3) [03B49DAA], AccurateRip вернул [D8337393]

Ни один трек не прошёл проверки на точностьВ вашей базе может быть иной вариант штамповки диска

Конец отчёта
  
AUDIOCHECKER v2.0 beta (build 457) - by Dester - <a href="mailto:opdester@freemail.hu" class="postLink">opdester@freemail.hu</a>~~~~~~~~~~~~~~~~~~~~~~~~~~~~~~~~~~

Started at: суббота, 23. 06. 2012. - 15:04.241 file found

1 -===- D:\Запись\The Yardbirds - Live Yardbirds! (futuring Jimmy Page)\The Yardbirds - Live Yardbirds! Featuring Jimmy Page.flac Extracted successfully Conclusion: this track is CDDA with probability 100% Tempfile successfully deleted.

Finished at: суббота, 23. 06. 2012. - 15:07.34 (operation time: 0:03.10)


Arguably the most famous lost live album in history, Live Yardbirds Featuring Jimmy Page, cut at the Anderson Theater in New York on March 30, 1968, has been issued twice on vinyl legitimately (only to be suppressed by legal action) and innumerable times since as a bootleg.

In August 2000, Mooreland St. Records put out the first authorized CD edition of the performance, and it is a complete revelation. The original master tape has been improved significantly; the absence of vinyl noise is an obvious plus, but the sheer impact of the instruments is also startling, given that the show was taped by a producer who had never recorded a rock band before, on equipment that was ten years out of date. The producers have expanded this reissue with help from a separate reference tape, an audience recording that preserved the complete unedited show; it's somewhat low-fi, but it captures material edited from the finished master, and it allows for the restoration of little nuances. Page's guitar (which goes out of tune several times) is the dominant instrument, alternately crunchy and lyrical, but always loud and dexterous; the roughness of Keith Relf's singing is also more apparent, but his shortcomings don't really hurt the music.

The performance also reveals just how far out in front of the psychedelic pack the Yardbirds were by the spring of 1968; Page had pushed the envelope about as far as he could, in terms of high-velocity guitar pyrotechnics. Ironically, this album isn't quite as strong as the contemporary Truth album by Jeff Beck, mostly because the Yardbirds were still juggling three sounds: the group's progressive pop/rock past, the psychedelia of 1968, and a harder, more advanced blues-based sound. It's clear that they had few places left to go with the first two; "Dazed and Confused," by contrast, represented something new, a slow blues as dark, forbidding, and intense as anything that the band had ever cut -- it showed where Page, if not this band, was heading.
Keith Relf - harmonica, lead vocals
Jimmy Page - guitar
Chris Dreja - bass
Jim McCarty - drums, backing vocals


Трекер:  [ 27-Июн-2012 10:08 ]

  

Скачать .torrent

Размер .torrent файла 15 KB


Размер: 368 MB
Хэш (hash) релиза: b11df58c22f5ce97ae8b382f8415dfc251918798

Еще никто не оставлял запись к записи скачать торрент The Yardbirds - Live Yardbirds! . Будь первым!

!Обратная связь