Скачать через торрент музыку Monkey3 - Beyond The Black Sky - 2011, FLAC бесплатно без регистрации torrent

Если у вас наблюдаются проблемы со скриншотами, переходом по ссылками, скачиванием торрентов - проблемы в блокировщике рекламы AdBlock. #хорошегоДня!


Статистика раздачи
Размер:  272 MB   |    Зарегистрирован:  5 лет 1 месяц   |    .torrent скачан:  19 раз   |   
Раздают:  1  
   
Загрузка...
 
Автор Сообщение

_N_

avatar _N_


Monkey3 / Beyond The Black Sky

Жанр: Post-Rock / Stoner / Psychedelic / Space-Rock
Страна-производитель диска: Germany
Год издания: 2011
Издатель (лейбл): Stickman Records
Номер по каталогу: 072
Страна: Switzerland
Аудиокодек: FLAC (*.flac)
Тип рипа: tracks+.cue
Битрейт аудио: lossless
Продолжительность: 00:42:10
Источник (релизер): Killjoy
Наличие сканов в содержимом раздачи: нет
01. Camhell (6:19)
02. One Zero Zero One (4:03)
03. Black Maiden (8:51)
04. Tuco The Ugly (2:13)
05. K.I. (2:30)
06. Motorcycle Broer (5:33)
07. Gate 57 (3:48)
08. Through The Desert (8:53)
  
Exact Audio Copy V0.99 prebeta 5 from 4. May 2009

EAC extraction logfile from 8. May 2011, 21:27

Monkey3 / Beyond The Black Sky

Used drive : TSSTcorpCDDVDW SH-S223Q Adapter: 1 ID: 0

Read mode : SecureUtilize accurate stream : YesDefeat audio cache : YesMake use of C2 pointers : No

Read offset correction : 6Overread into Lead-In and Lead-Out : NoFill up missing offset samples with silence : YesDelete leading and trailing silent blocks : NoNull samples used in CRC calculations : NoUsed interface : Installed external ASPI interfaceGap handling : Appended to previous track

Used output format : User Defined EncoderSelected bitrate : 1024 kBit/sQuality : HighAdd ID3 tag : NoCommand line compressor : Z:\windows\Program Files (x86)\Exact Audio Copy\FLAC\FLAC.EXEAdditional command line options : -6 -V -T "ARTIST=%a" -T "TITLE=%t" -T "ALBUM=%g" -T "DATE=%y" -T "TRACKNUMBER=%n" -T "GENRE=%m" -T "COMMENT=%e" %s -o %d

TOC of the extracted CD

Track | Start | Length | Start sector | End sector --------------------------------------------------------- 1 | 0:00.00 | 6:19.50 | 0 | 28474 2 | 6:19.50 | 4:03.30 | 28475 | 46729 3 | 10:23.05 | 8:51.38 | 46730 | 86592 4 | 19:14.43 | 2:13.12 | 86593 | 96579 5 | 21:27.55 | 2:30.33 | 96580 | 107862 6 | 23:58.13 | 5:33.34 | 107863 | 132871 7 | 29:31.47 | 3:48.38 | 132872 | 150009 8 | 33:20.10 | 8:53.32 | 150010 | 190016

Track 1

Filename Z:\data\Temp\Monkey3 - 2011 - Beyond The Black Sky (FLAC)\Monkey3 - 01 - Camhell.wav

Pre-gap length 0:00:02.00

Peak level 96.6 % Track quality 100.0 % Test CRC 458AE26F Copy CRC 458AE26F Track not present in AccurateRip database Copy OK

Track 2

Filename Z:\data\Temp\Monkey3 - 2011 - Beyond The Black Sky (FLAC)\Monkey3 - 02 - One Zero Zero One.wav

Peak level 96.6 % Track quality 99.9 % Test CRC 76916C5D Copy CRC 76916C5D Track not present in AccurateRip database Copy OK

Track 3

Filename Z:\data\Temp\Monkey3 - 2011 - Beyond The Black Sky (FLAC)\Monkey3 - 03 - Black Maiden.wav

Peak level 100.0 % Track quality 100.0 % Test CRC E1D6E5EC Copy CRC E1D6E5EC Track not present in AccurateRip database Copy OK

Track 4

Filename Z:\data\Temp\Monkey3 - 2011 - Beyond The Black Sky (FLAC)\Monkey3 - 04 - Tuco The Ugly.wav

Peak level 60.6 % Track quality 99.9 % Test CRC 1723089F Copy CRC 1723089F Track not present in AccurateRip database Copy OK

Track 5

Filename Z:\data\Temp\Monkey3 - 2011 - Beyond The Black Sky (FLAC)\Monkey3 - 05 - K.I..wav

Peak level 96.6 % Track quality 99.9 % Test CRC 4F149974 Copy CRC 4F149974 Track not present in AccurateRip database Copy OK

Track 6

Filename Z:\data\Temp\Monkey3 - 2011 - Beyond The Black Sky (FLAC)\Monkey3 - 06 - Motorcycle Broer.wav

Peak level 96.6 % Track quality 100.0 % Test CRC 8FF68D51 Copy CRC 8FF68D51 Track not present in AccurateRip database Copy OK

Track 7

Filename Z:\data\Temp\Monkey3 - 2011 - Beyond The Black Sky (FLAC)\Monkey3 - 07 - Gate 57.wav

Peak level 96.6 % Track quality 100.0 % Test CRC 366CE2FB Copy CRC 366CE2FB Track not present in AccurateRip database Copy OK

Track 8

Filename Z:\data\Temp\Monkey3 - 2011 - Beyond The Black Sky (FLAC)\Monkey3 - 08 - Through The Desert.wav

Peak level 96.6 % Track quality 100.0 % Test CRC 2CD4143A Copy CRC 2CD4143A Track not present in AccurateRip database Copy OK

None of the tracks are present in the AccurateRip database

No errors occurred

End of status report
  
REM GENRE "Stoner Rock"REM DATE 2011TITLE "Beyond The Black Sky"FILE "01 - Camhell.flac" WAVE TRACK 01 AUDIO PERFORMER "Monkey3" TITLE "Camhell" INDEX 01 00:00:00FILE "02 - One Zero Zero One.flac" WAVE TRACK 02 AUDIO PERFORMER "Monkey3" TITLE "One Zero Zero One" INDEX 01 00:00:00FILE "03 - Black Maiden.flac" WAVE TRACK 03 AUDIO PERFORMER "Monkey3" TITLE "Black Maiden" INDEX 01 00:00:00FILE "04 - Tuco The Ugly.flac" WAVE TRACK 04 AUDIO PERFORMER "Monkey3" TITLE "Tuco The Ugly" INDEX 01 00:00:00FILE "05 - K.I.flac" WAVE TRACK 05 AUDIO PERFORMER "Monkey3" TITLE "K.I." INDEX 01 00:00:00FILE "06 - Motorcycle Broer.flac" WAVE TRACK 06 AUDIO PERFORMER "Monkey3" TITLE "Motorcycle Broer" INDEX 01 00:00:00FILE "07 - Gate 57.flac" WAVE TRACK 07 AUDIO PERFORMER "Monkey3" TITLE "Gate 57" INDEX 01 00:00:00FILE "08 - Through The Desert.flac" WAVE TRACK 08 AUDIO PERFORMER "Monkey3" TITLE "Through The Desert" INDEX 01 00:00:00
  
AUDIOCHECKER v2.0 beta (build 457) - by Dester - <a href="mailto:opdester@freemail.hu" class="postLink">opdester@freemail.hu</a>~~~~~~~~~~~~~~~~~~~~~~~~~~~~~~~~~~-=== DO NOT EDIT THIS FILE! ===-

Path: ...\2011 - Beyond The Black Sky

1 -=- 01 - Camhell.flac -=- CDDA (100%)2 -=- 02 - One Zero Zero One.flac -=- CDDA (100%)3 -=- 03 - Black Maiden.flac -=- CDDA (100%)4 -=- 04 - Tuco The Ugly.flac -=- CDDA (100%)5 -=- 05 - K.I..flac -=- CDDA (100%)6 -=- 06 - Motorcycle Broer.flac -=- CDDA (100%)7 -=- 07 - Gate 57.flac -=- CDDA (100%)8 -=- 08 - Through The Desert.flac -=- CDDA (100%)

Summary 100.00% CDDA

140883924
Walter-drums
Picasso-bass
Boris-guitar
dB-keys


Трекер:  [ 27-Июн-2012 10:08 ]

  

Скачать .torrent

Размер .torrent файла 11 KB


Размер: 272 MB
Хэш (hash) релиза: 204c39260d2b02df085871fd73cd074d0a169e6c

Еще никто не оставлял запись к записи скачать торрент Monkey3 - Beyond The Black Sky - 2011, FLAC . Будь первым!

!Обратная связь