Скачать через торрент музыку Alice Cooper - Hey Stoopid бесплатно без регистрации torrent

Если у вас наблюдаются проблемы со скриншотами, переходом по ссылками, скачиванием торрентов - проблемы в блокировщике рекламы AdBlock. #хорошегоДня!


Статистика раздачи
Размер:  99 MB   |    Зарегистрирован:  5 лет 4 месяца   |    .torrent скачан:  17 раз   |   
Раздают:  1  
   
Загрузка...
 
Автор Сообщение

_N_

avatar _N_


Alice Cooper / Hey Stoopid (Maxi CD Single)

Жанр: Rock
Страна-производитель диска: Austria
Год издания: 1991
Издатель (лейбл): EPIC
Номер по каталогу: EPC 656983 5
Страна: USA
Аудиокодек: FLAC (*.flac)
Тип рипа: image+.cue
Битрейт аудио: lossless
Продолжительность: 13:31:59
Источник (релизер): Собственная коллекция
Наличие сканов в содержимом раздачи: да
Треклист:
1. Hey Stoopid
2. Wind-Up Toy
3. It Rained All Night
  
Exact Audio Copy V1.0 beta 3 from 29. August 2011

Отчёт EAC об извлечении, выполненном 26. июня 2012, 22:18

Alice Cooper / Hey Stoopid

Дисковод: Optiarc DVD RW AD-7690H Adapter: 4 ID: 0

Режим чтения : ДостоверностьИспользование точного потока : ДаОтключение кэша аудио : ДаИспользование указателей C2 : Нет

Коррекция смещения при чтении : 48Способность читать области Lead-in и Lead-out : НетЗаполнение пропущенных сэмплов тишиной : ДаУдаление блоков с тишиной в начале и конце : НетПри вычислениях CRC использовались нулевые сэмплы : ДаИнтерфейс : Встроенный Win32-интерфейс для Win NT/2000

Выходной формат : Пользовательский кодировщикВыбранный битрейт : 1024 kBit/sКачество : ВысокийДобавление ID3-тега : НетУтилита сжатия : C:\Program Files (x86)\Exact Audio Copy\Flac\flac.exeДополнительные параметры : -V -8 -T "Date=%year%" -T "Genre=%genre%" %source%

TOC извлечённого CD

Трек | Старт | Длительность | Начальный сектор | Конечный сектор --------------------------------------------------------------------- 1 | 0:00.00 | 4:16.42 | 0 | 19241 2 | 4:16.42 | 5:22.35 | 19242 | 43426 3 | 9:39.02 | 3:52.58 | 43427 | 60884

Характеристики диапазона извлечения и сообщения об ошибках

Выбранный диапазон

Имя файла C:\Users\Толик\Desktop\Новая папка (3)\Alice Cooper - Hey Stoopid.wav

Пиковый уровень 97.7 % Скорость извлечения 1.4 X Качество диапазона 100.0 % CRC теста 67C1FFCB CRC копии 67C1FFCB Копирование... OK

Ошибок не произошло

AccurateRip: сводка

Трек 1 : извлечено точно (доверие 3) [0F4218E8] (AR v1)Трек 2 : извлечено точно (доверие 3) [19263E95] (AR v1)Трек 3 : извлечено точно (доверие 3) [D7E15562] (AR v1)

Все треки извлечены точно

Конец отчёта

==== Контрольная сумма отчёта B6FD4A648775916D811672D40540D62404E1D29C4EE60BACC20FC78C6CBF40EB ====
  
REM GENRE RockREM DATE 1991REM DISCID 1F032B03REM COMMENT "ExactAudioCopy v1.0b3"CATALOG 5099765698350PERFORMER "Alice Cooper"TITLE "Hey Stoopid"FILE "Alice Cooper - Hey Stoopid.flac" WAVE TRACK 01 AUDIO TITLE "Hey Stoopid" PERFORMER "Alice Cooper" INDEX 01 00:00:00 TRACK 02 AUDIO TITLE "Wind-Up Toy " PERFORMER "Alice Cooper" INDEX 00 04:15:05 INDEX 01 04:16:42 TRACK 03 AUDIO TITLE "It Rained All Night" PERFORMER "Alice Cooper" INDEX 00 09:37:05 INDEX 01 09:39:02


Трекер:  [ 27-Июн-2012 10:08 ]

  

Скачать .torrent

Размер .torrent файла 16 KB


Размер: 99 MB
Хэш (hash) релиза: 762ffabbe76e192fb5c5f8c075bd9db1ca3cc03f

Торренты, похожие на Alice Cooper - Hey Stoopid скачать торрент

Форум Название Автор Размер S L Добавлен
Rосk | Mеtаl | Аltеrnаtivе, Рunk, Indереndеnt (losslеss) ·· (Hard Rock) Alice Cooper 2011-Original Album Classics [3CD, Sony 8869744462, EU]: Trash [1989] + Hey Stoopid [1991] + The Last Temptation [1994], FLAC (image+.cue), lossless Galfimbul 11116702101.04 GB 0 0 1327003305

23:01

19-Янв-12

Еще никто не оставлял запись к записи скачать торрент Alice Cooper - Hey Stoopid . Будь первым!

!Обратная связь