Скачать через торрент музыку Van Zant 2007-My Kind Of Country бесплатно без регистрации torrent

Если у вас наблюдаются проблемы со скриншотами, переходом по ссылками, скачиванием торрентов - проблемы в блокировщике рекламы AdBlock. #хорошегоДня!


Статистика раздачи
Размер:  336 MB   |    Зарегистрирован:  5 лет 3 месяца   |    .torrent скачан:  29 раз   |   
Раздают:  1  
   
Загрузка...
 
Автор Сообщение

Centner1

avatar Centner1


My Kind Of Country(2007)

Жанр: Country / Southern Rock
Страна исполнителя: USA
Страна-производитель диска: USA
Год выхода альбома / издания диска: 2007
Издатель (лейбл): Sony BMG / Nashville
Номер по каталогу: 88697-06198-2
Аудио кодек: FLAC (*.flac)
Тип рипа: image+.cue
Битрейт аудио: lossless
Продолжительность: 42:32
01. Train (3:55)
02. These Colors Don't Run (4:24)
03. Goes Down Easy (3:42)
04. That Scares Me (3:25)
05. My Kind Of Country (3:21)
06. The Hardest Thing (4:03)
07. It's Only Money (3:21)
08. We Can't Do It Alone (4:23)
09. Friend (3:52)
10. It's All About You (4:00)
11. Headed South (4:07)
  
Exact Audio Copy V1.0 beta 3 from 29. August 2011

EAC extraction logfile from 30. October 2011, 16:12

Van Zant / My Kind Of Country

Used drive : HL-DT-STDVD-RAM GH22LP20 Adapter: 4 ID: 1

Read mode : SecureUtilize accurate stream : YesDefeat audio cache : YesMake use of C2 pointers : No

Read offset correction : 102Overread into Lead-In and Lead-Out : NoFill up missing offset samples with silence : YesDelete leading and trailing silent blocks : NoNull samples used in CRC calculations : YesUsed interface : Installed external ASPI interface

Used output format : User Defined EncoderSelected bitrate : 896 kBit/sQuality : HighAdd ID3 tag : NoCommand line compressor : C:\Program Files (x86)\Exact Audio Copy\WAV Pack\wavpack.exeAdditional command line options : -hlmx2 %source% %dest%

TOC of the extracted CD

Track | Start | Length | Start sector | End sector --------------------------------------------------------- 1 | 0:00.00 | 3:55.29 | 0 | 17653 2 | 3:55.29 | 4:23.52 | 17654 | 37430 3 | 8:19.06 | 3:41.70 | 37431 | 54075 4 | 12:01.01 | 3:25.05 | 54076 | 69455 5 | 15:26.06 | 3:21.05 | 69456 | 84535 6 | 18:47.11 | 4:02.51 | 84536 | 102736 7 | 22:49.62 | 3:20.60 | 102737 | 117796 8 | 26:10.47 | 4:22.38 | 117797 | 137484 9 | 30:33.10 | 3:52.13 | 137485 | 154897 10 | 34:25.23 | 3:59.52 | 154898 | 172874 11 | 38:25.00 | 4:07.36 | 172875 | 191435

Range status and errors

Selected range

Filename X:\Releases RAW\Van Zant - My Kind Of Country\Van Zant - My Kind Of Country.wav

Peak level 99.7 % Extraction speed 2.6 X Range quality 100.0 % Test CRC ADFD1FB2 Copy CRC ADFD1FB2 Copy OK

No errors occurred

AccurateRip summary

Track 1 accurately ripped (confidence 17) [B6B002B3] (AR v1)Track 2 accurately ripped (confidence 17) [5D030AC9] (AR v1)Track 3 accurately ripped (confidence 17) [0A270BAC] (AR v1)Track 4 accurately ripped (confidence 17) [49F5CE4C] (AR v1)Track 5 accurately ripped (confidence 16) [C97E052B] (AR v1)Track 6 accurately ripped (confidence 17) [5A1615C3] (AR v1)Track 7 accurately ripped (confidence 16) [039BF2FE] (AR v1)Track 8 accurately ripped (confidence 17) [943185D1] (AR v1)Track 9 accurately ripped (confidence 17) [9B451C84] (AR v1)Track 10 accurately ripped (confidence 17) [46F52AAD] (AR v1)Track 11 accurately ripped (confidence 17) [49E4B53D] (AR v1)

All tracks accurately ripped

End of status report

---- CUETools DB Plugin V2.1.3

[CTDB TOCID: BUEbp2Kh.xWr5PubpgKMMQ549c0-] found, Submit result: BUEbp2Kh.xWr5PubpgKMMQ549c0- has been confirmed[08f799f0] (15/15) Accurately ripped

==== Log checksum D74DF0206995F768051295DAD1F4BF03656F692B66E803D3CBEAFF001DC0B00F ====
  
REM GENRE Southern RockREM DATE 2007REM DISCID 8709F80BREM COMMENT "ExactAudioCopy v1.0b3"CATALOG 0886970619820PERFORMER "Van Zant"TITLE "My Kind Of Country"FILE "Van Zant - My Kind Of Country.flac" WAVE TRACK 01 AUDIO TITLE "Train" PERFORMER "Van Zant" FLAGS PRE ISRC USG4X0600023 INDEX 01 00:00:00 TRACK 02 AUDIO TITLE "These Colors Don't Run" PERFORMER "Van Zant" FLAGS PRE ISRC USG4X0600027 INDEX 00 03:54:08 INDEX 01 03:55:29 TRACK 03 AUDIO TITLE "Goes Down Easy" PERFORMER "Van Zant" FLAGS PRE ISRC USG4X0600026 INDEX 00 08:17:33 INDEX 01 08:19:06 TRACK 04 AUDIO TITLE "That Scares Me" PERFORMER "Van Zant" FLAGS PRE ISRC USG4X0600025 INDEX 00 11:59:74 INDEX 01 12:01:01 TRACK 05 AUDIO TITLE "My Kind Of Country" PERFORMER "Van Zant" FLAGS PRE ISRC USG4X0600024 INDEX 00 15:24:70 INDEX 01 15:26:06 TRACK 06 AUDIO TITLE "The Hardest Thing" PERFORMER "Van Zant" FLAGS PRE ISRC USG4X0700005 INDEX 00 18:45:62 INDEX 01 18:47:11 TRACK 07 AUDIO TITLE "It's Only Money" PERFORMER "Van Zant" FLAGS PRE ISRC USG4X0600022 INDEX 00 22:48:47 INDEX 01 22:49:62 TRACK 08 AUDIO TITLE "We Can't Do It Alone" PERFORMER "Van Zant" FLAGS PRE ISRC USG4X0700010 INDEX 00 26:09:55 INDEX 01 26:10:47 TRACK 09 AUDIO TITLE "Friend" PERFORMER "Van Zant" FLAGS PRE ISRC USG4X0700008 INDEX 00 30:32:02 INDEX 01 30:33:10 TRACK 10 AUDIO TITLE "It's All About You" PERFORMER "Van Zant" FLAGS PRE ISRC USG4X0700007 INDEX 00 34:24:34 INDEX 01 34:25:23 TRACK 11 AUDIO TITLE "Headed South" PERFORMER "Van Zant" FLAGS PRE ISRC USG4X0700009 INDEX 00 38:23:63 INDEX 01 38:25:00
  
foobar2000 1.1.1 / Dynamic Range Meter 1.1.1log date: 2012-06-27 09:43:17

--------------------------------------------------------------------------------Analyzed: Van Zant / My Kind Of Country--------------------------------------------------------------------------------

DR Peak RMS Duration Track--------------------------------------------------------------------------------DR6 -0.34 dB -7.79 dB 3:55 01-TrainDR6 -0.34 dB -8.25 dB 4:24 02-These Colors Don't RunDR7 -0.20 dB -8.58 dB 3:42 03-Goes Down EasyDR6 -0.12 dB -7.87 dB 3:25 04-That Scares MeDR6 -0.29 dB -7.29 dB 3:21 05-My Kind Of CountryDR6 -0.37 dB -7.61 dB 4:03 06-The Hardest ThingDR7 -0.26 dB -8.52 dB 3:21 07-It's Only MoneyDR6 -0.03 dB -7.79 dB 4:23 08-We Can't Do It AloneDR6 -0.42 dB -8.83 dB 3:52 09-FriendDR6 -0.24 dB -7.79 dB 4:00 10-It's All About YouDR6 -0.40 dB -7.70 dB 4:07 11-Headed South--------------------------------------------------------------------------------

Number of tracks: 11Official DR value: DR6

Samplerate: 44100 HzChannels: 2Bits per sample: 16Bitrate: 984 kbpsCodec: FLAC
  
[CUETools log; Date: 27.06.2012 9:35:24; Version: 2.1.4][CTDB TOCID: BUEbp2Kh.xWr5PubpgKMMQ549c0-] found.Track | CTDB Status 1 | (3/3) Accurately ripped 2 | (3/3) Accurately ripped 3 | (3/3) Accurately ripped 4 | (3/3) Accurately ripped 5 | (3/3) Accurately ripped 6 | (3/3) Accurately ripped 7 | (3/3) Accurately ripped 8 | (3/3) Accurately ripped 9 | (3/3) Accurately ripped 10 | (3/3) Accurately ripped 11 | (3/3) Accurately ripped[AccurateRip ID: 0011669d-009687b3-8709f80b] found.Track [ CRC | V2 ] Status 01 [b6b002b3|5107b486] (17+00/17) Accurately ripped 02 [5d030ac9|97b60fe7] (17+00/17) Accurately ripped 03 [0a270bac|c5c304b5] (17+00/17) Accurately ripped 04 [49f5ce4c|1c445d62] (17+00/17) Accurately ripped 05 [c97e052b|31dd4943] (16+00/16) Accurately ripped 06 [5a1615c3|d2fcbae1] (17+00/17) Accurately ripped 07 [039bf2fe|5c2b82b1] (16+00/16) Accurately ripped 08 [943185d1|401ff718] (17+00/17) Accurately ripped 09 [9b451c84|72820be8] (17+00/17) Accurately ripped 10 [46f52aad|84bf16ed] (17+00/17) Accurately ripped 11 [49e4b53d|8c2f9371] (17+00/17) Accurately ripped

Track Peak [ CRC32 ] [W/O NULL] [ LOG ] -- 99,7 [ADFD1FB2] [D94D010B] CRC32 01 96,2 [193DC175] [9C9033D9] 02 96,1 [B4D24E75] [AD72C3AF] 03 97,7 [B950B895] [9D4FB542] 04 98,6 [8B82CC85] [BDDC8BB4] 05 96,7 [E9CAF3F9] [7B3C2621] 06 95,8 [151D0601] [1DCFD9AB] 07 97,0 [482086E2] [DA3B6174] 08 99,7 [C6CBF9F6] [1BAEF364] 09 95,2 [C12D1C6C] [49245916] 10 97,2 [9C55087D] [BB509588] 11 95,4 [6C6924AE] [8D560EA8]

My Kind of Country is an album released by American musical duo Van Zant. It peaked at number 10 on the Top Country Albums chart. The album includes the singles That Scares Me and Goes Down Easy, both of which charted on Billboard Hot Country Songs.
Альбом шикарный, и, как всегда, слишком короткий по времени. Когда слушаешь такую музыку, то время не замечаешь. Даже если Вы уже слушали этот альбом, то слушали Вы его не правильно. На альбоме очень правильно сделаны предыскажения; я всё время удивлялся, от чего звук такой поганый? Ведь Братья Zant записывают очень качественно. В этот раз они то же не подвели со звуком, только решили наверно записаться на старой аппаратуре, вспомнить молодость. Так что слушайте и наслаждайтесь аналоговым звуком (ну почти: компрессия, конечно, есть), не забывая включить Конволвер в Фубаре или прожечь с FLAGS PRE.


Трекер:  [ 27-Июн-2012 10:05 ]

  

Скачать .torrent

Размер .torrent файла 15 KB


Размер: 336 MB
Хэш (hash) релиза: cab7f57bdd3e91e4af6289464ac5d4de8e051523

Еще никто не оставлял запись к записи скачать торрент Van Zant 2007-My Kind Of Country . Будь первым!

!Обратная связь