Скачать через торрент музыку Centenaire - Centenaire - 2008, FLAC бесплатно без регистрации torrent

Если у вас наблюдаются проблемы со скриншотами, переходом по ссылками, скачиванием торрентов - проблемы в блокировщике рекламы AdBlock. #хорошегоДня!


Статистика раздачи
Размер:  298 MB   |    Зарегистрирован:  5 лет 4 месяца   |    .torrent скачан:  15 раз   |   
Раздают:  1  
   
Загрузка...
 
Автор Сообщение

_N_

avatar _N_


Centenaire / Centenaire
Жанр: Eclectic Prog
Страна-производитель диска: France
Год издания: 2008
Издатель (лейбл): Chief Inspector
Номер по каталогу: CHIN200712
Страна: France
Аудиокодек: FLAC (*.flac)
Тип рипа: tracks+.cue
Битрейт аудио: lossless
Продолжительность: 47:58
Источник (релизер): вата (alx77)
Наличие сканов в содержимом раздачи: нет

Треклист:
1. Norway 3:51
2. Le retour 3:40
3. Castle 3:32
4. Take me home 2:58
5. Swan 6:00
6. The day before 3:32
7. Bugatti 3:36
8. Heavy for everyone 4:34
9. The dress 3:09
10. Masquerade 2:15
11. Riverside 2:30
12. Ending fast 3:01
13. You 2:53
14. Strong 4:44
|| Norway ||Centenaire - 2010 || progarchives.com || centenaire.net || musique.krinein.com || discogs.com ||rateyourmusic.com ||
  
Exact Audio Copy V1.0 beta 3 from 29. August 2011

EAC extraction logfile from 26. June 2012, 17:33

Centenaire / Centeraire

Used drive : HL-DT-STDVD+-RW GA31N Adapter: 0 ID: 1

Read mode : SecureUtilize accurate stream : YesDefeat audio cache : YesMake use of C2 pointers : No

Read offset correction : 103Overread into Lead-In and Lead-Out : NoFill up missing offset samples with silence : YesDelete leading and trailing silent blocks : NoNull samples used in CRC calculations : YesUsed interface : Native Win32 interface for Win NT & 2000Gap handling : Appended to previous track

Used output format : User Defined EncoderSelected bitrate : 1024 kBit/sQuality : HighAdd ID3 tag : NoCommand line compressor : C:\Program Files (x86)\Exact Audio Copy\Flac\flac.exeAdditional command line options : -8 -V -T "ARTIST=%artist%" -T "TITLE=%title%" -T "ALBUM=%albumtitle%" -T "DATE=%year%" -T "TRACKNUMBER=%tracknr%" -T "GENRE=%genre%" -T "PERFORMER=%albuminterpret%" -T "COMPOSER=%composer%" %haslyrics%--tag-from-file=LYRICS="%lyricsfile%"%haslyrics% -T "ALBUMARTIST=%albumartist%" -T "DISCNUMBER=%cdnumber%" -T "TOTALDISCS=%totalcds%" -T "TOTALTRACKS=%numtracks%" -T "COMMENT=%comment%" %source% -o %dest%

TOC of the extracted CD

Track | Start | Length | Start sector | End sector --------------------------------------------------------- 1 | 0:00.00 | 3:51.18 | 0 | 17342 2 | 3:51.18 | 3:40.24 | 17343 | 33866 3 | 7:31.42 | 3:32.57 | 33867 | 49823 4 | 11:04.24 | 2:58.64 | 49824 | 63237 5 | 14:03.13 | 6:00.09 | 63238 | 90246 6 | 20:03.22 | 3:32.74 | 90247 | 106220 7 | 23:36.21 | 3:36.22 | 106221 | 122442 8 | 27:12.43 | 4:34.35 | 122443 | 143027 9 | 31:47.03 | 3:09.51 | 143028 | 157253 10 | 34:56.54 | 2:15.34 | 157254 | 167412 11 | 37:12.13 | 2:30.28 | 167413 | 178690 12 | 39:42.41 | 3:01.66 | 178691 | 192331 13 | 42:44.32 | 2:53.11 | 192332 | 205317 14 | 45:37.43 | 4:43.53 | 205318 | 226595

Track 1

Filename C:\EAC\01 Norway.wav

Pre-gap length 0:00:02.00

Peak level 95.7 % Extraction speed 1.2 X Track quality 100.0 % Test CRC C3CF7BD7 Copy CRC C3CF7BD7 Accurately ripped (confidence 1) [9FB19B0A] (AR v1) Copy OK

Track 2

Filename C:\EAC\02 Le retour.wav

Pre-gap length 0:00:02.00

Peak level 87.4 % Extraction speed 1.3 X Track quality 100.0 % Test CRC 67B42998 Copy CRC 67B42998 Accurately ripped (confidence 1) [87FB889F] (AR v1) Copy OK

Track 3

Filename C:\EAC\03 Castle.wav

Peak level 100.0 % Extraction speed 1.4 X Track quality 100.0 % Test CRC 53E8D660 Copy CRC 53E8D660 Accurately ripped (confidence 1) [6F1DBE84] (AR v1) Copy OK

Track 4

Filename C:\EAC\04 Take me home.wav

Pre-gap length 0:00:01.00

Peak level 96.4 % Extraction speed 1.5 X Track quality 100.0 % Test CRC 916C6D42 Copy CRC 916C6D42 Accurately ripped (confidence 1) [494CE565] (AR v1) Copy OK

Track 5

Filename C:\EAC\05 Swan.wav

Pre-gap length 0:00:01.49

Peak level 98.0 % Extraction speed 1.8 X Track quality 100.0 % Test CRC 6ACC8ABF Copy CRC 6ACC8ABF Accurately ripped (confidence 1) [003F2C35] (AR v1) Copy OK

Track 6

Filename C:\EAC\06 The day before.wav

Pre-gap length 0:00:01.00

Peak level 98.1 % Extraction speed 1.8 X Track quality 100.0 % Test CRC 8A42D98F Copy CRC 8A42D98F Accurately ripped (confidence 1) [E27B0FEB] (AR v1) Copy OK

Track 7

Filename C:\EAC\07 Bugatti.wav

Pre-gap length 0:00:03.00

Peak level 95.0 % Extraction speed 1.9 X Track quality 100.0 % Test CRC 87AEB5F6 Copy CRC 87AEB5F6 Accurately ripped (confidence 1) [DAA19003] (AR v1) Copy OK

Track 8

Filename C:\EAC\08 Heavy for everyone.wav

Pre-gap length 0:00:03.00

Peak level 100.0 % Extraction speed 2.0 X Track quality 100.0 % Test CRC 32C86094 Copy CRC 32C86094 Accurately ripped (confidence 1) [5A8F4064] (AR v1) Copy OK

Track 9

Filename C:\EAC\09 The dress.wav

Pre-gap length 0:00:03.00

Peak level 94.9 % Extraction speed 2.0 X Track quality 100.0 % Test CRC E81EFA9E Copy CRC E81EFA9E Accurately ripped (confidence 1) [FF555230] (AR v1) Copy OK

Track 10

Filename C:\EAC\10 Masquerade.wav

Pre-gap length 0:00:03.00

Peak level 84.1 % Extraction speed 1.6 X Track quality 99.9 % Test CRC 7136973A Copy CRC 7136973A Accurately ripped (confidence 2) [B9011E11] (AR v1) Copy OK

Track 11

Filename C:\EAC\11 Riverside.wav

Pre-gap length 0:00:01.53

Peak level 97.5 % Extraction speed 1.7 X Track quality 99.9 % Test CRC 9341DD8D Copy CRC 9341DD8D Accurately ripped (confidence 1) [CB828BF9] (AR v1) Copy OK

Track 12

Filename C:\EAC\12 Ending fast.wav

Pre-gap length 0:00:03.00

Peak level 100.0 % Extraction speed 2.1 X Track quality 100.0 % Test CRC D37E37BA Copy CRC D37E37BA Accurately ripped (confidence 1) [49759D6D] (AR v1) Copy OK

Track 13

Filename C:\EAC\13 You.wav

Pre-gap length 0:00:05.00

Peak level 89.6 % Extraction speed 2.2 X Track quality 100.0 % Test CRC 000B0B53 Copy CRC 000B0B53 Accurately ripped (confidence 1) [C5A3342F] (AR v1) Copy OK

Track 14

Filename C:\EAC\14 Strong.wav

Pre-gap length 0:00:03.49

Peak level 96.8 % Extraction speed 2.4 X Track quality 100.0 % Test CRC 7F49850D Copy CRC 7F49850D Accurately ripped (confidence 1) [A44A9633] (AR v1) Copy OK

All tracks accurately ripped

No errors occurred

End of status report

==== Log checksum F0F420F71886F530332986179E29821D874383F376A8190FF34CBC9CA32E2A76 ====
  
REM GENRE IndieREM DATE 2007REM DISCID C70BCD0EREM COMMENT "ExactAudioCopy v1.0b3"PERFORMER "Centenaire"TITLE "Centeraire"FILE "01 Norway.wav" WAVE TRACK 01 AUDIO TITLE "Norway" PERFORMER "Centenaire" ISRC FRPOP0700220 INDEX 01 00:00:00 TRACK 02 AUDIO TITLE "Le retour" PERFORMER "Centenaire" ISRC FRPOP0700230 INDEX 00 03:49:18FILE "02 Le retour.wav" WAVE INDEX 01 00:00:00FILE "03 Castle.wav" WAVE TRACK 03 AUDIO TITLE "Castle" PERFORMER "Centenaire" ISRC FRPOP0700240 INDEX 01 00:00:00 TRACK 04 AUDIO TITLE "Take me home" PERFORMER "Centenaire" ISRC FRPOP0700250 INDEX 00 03:31:57FILE "04 Take me home.wav" WAVE INDEX 01 00:00:00 TRACK 05 AUDIO TITLE "Swan" PERFORMER "Centenaire" ISRC FRPOP0700260 INDEX 00 02:57:27FILE "05 Swan.wav" WAVE INDEX 01 00:00:00 TRACK 06 AUDIO TITLE "The day before" PERFORMER "Centenaire" ISRC FRPOP0700270 INDEX 00 05:59:09FILE "06 The day before.wav" WAVE INDEX 01 00:00:00 TRACK 07 AUDIO TITLE "Bugatti" PERFORMER "Centenaire" ISRC FRPOP0700280 INDEX 00 03:29:74FILE "07 Bugatti.wav" WAVE INDEX 01 00:00:00 TRACK 08 AUDIO TITLE "Heavy for everyone" PERFORMER "Centenaire" ISRC FRPOP0700290 INDEX 00 03:33:22FILE "08 Heavy for everyone.wav" WAVE INDEX 01 00:00:00 TRACK 09 AUDIO TITLE "The dress" PERFORMER "Centenaire" ISRC FRPOP0700300 INDEX 00 04:31:35FILE "09 The dress.wav" WAVE INDEX 01 00:00:00 TRACK 10 AUDIO TITLE "Masquerade" PERFORMER "Centenaire" ISRC FRPOP0700310 INDEX 00 03:06:51FILE "10 Masquerade.wav" WAVE INDEX 01 00:00:00 TRACK 11 AUDIO TITLE "Riverside" PERFORMER "Centenaire" ISRC FRPOP0700320 INDEX 00 02:13:69FILE "11 Riverside.wav" WAVE INDEX 01 00:00:00 TRACK 12 AUDIO TITLE "Ending fast" PERFORMER "Centenaire" ISRC FRPOP0700330 INDEX 00 02:27:28FILE "12 Ending fast.wav" WAVE INDEX 01 00:00:00 TRACK 13 AUDIO TITLE "You" PERFORMER "Centenaire" ISRC FRPOP0700340 INDEX 00 02:56:66FILE "13 You.wav" WAVE INDEX 01 00:00:00 TRACK 14 AUDIO TITLE "Strong" PERFORMER "Centenaire" ISRC FRPOP0700350 INDEX 00 02:49:49FILE "14 Strong.wav" WAVE INDEX 01 00:00:00
  
-----------------------

DON'T MODIFY THIS FILE

-----------------------

PERFORMER: auCDtect Task Manager, ver. 1.5.1RC4 build 1.5.1.5Copyright (c) 2008-2010 y-soft. All rights reservedhttp://y-soft.org

ANALYZER: auCDtect: CD records authenticity detector, version 0.8.2Copyright (c) 2004 Oleg Berngardt. All rights reserved.Copyright (c) 2004 Alexander Djourik. All rights reserved.

FILE: 05 Swan.flac Size: 34512363 Hash: 2036CB2304C2395BC0EA881712E6C1FF Accuracy: -m0 Conclusion: CDDA 100% Signature: D9A13055D87FE97C97D71DCBBFEEF9CB1E8AAF68FILE: 04 Take me home.flac Size: 20657894 Hash: AAF1E559A065B291C6B4CAB7A480A9BF Accuracy: -m0 Conclusion: CDDA 99% Signature: 5E87127604ED19D4C41A2AE84E44BD8240CFF3ABFILE: 03 Castle.flac Size: 24042839 Hash: 05B08FD3BD847273C80372BD5E102908 Accuracy: -m0 Conclusion: CDDA 100% Signature: FE567E5EEB0241A1FD67138DB1F9FCEE1B8FD043FILE: 02 Le retour.flac Size: 22195016 Hash: 34D877194B3C797330F41BAF6A6CF877 Accuracy: -m0 Conclusion: CDDA 100% Signature: 9D9438CABCBE574A1BABE355FD77E44D80EC1ABDFILE: 01 Norway.flac Size: 22031761 Hash: 41913357BEBD678DFA349A6F90D64C4F Accuracy: -m0 Conclusion: CDDA 100% Signature: 087F993CB8DF6E8AC90534153B9148B01F4B96D2FILE: 14 Strong.flac Size: 35812508 Hash: 6683E8DEFCFD680037E2E2C2B230A798 Accuracy: -m0 Conclusion: CDDA 100% Signature: 3AACD4D560B0D35ACD0B83D3FBC5B66F33C41BAEFILE: 13 You.flac Size: 15005779 Hash: 1C681D9810137CE5219B9C375A1E6F3C Accuracy: -m0 Conclusion: CDDA 100% Signature: 9C46F6078B793917A2D327BBF34679BB0A313559FILE: 12 Ending fast.flac Size: 19460930 Hash: 0C4CBAC00E22A167D6483A729ACE7817 Accuracy: -m0 Conclusion: CDDA 100% Signature: 051894CA46DFFA7EB1BF4295FC990AEF7B3EEA20FILE: 11 Riverside.flac Size: 15680740 Hash: C1FE07A7F61F8F983A50B505A19B6979 Accuracy: -m0 Conclusion: CDDA 100% Signature: 65C5756C3DFAB0AA10B1A1E477626AAFA5E67ADFFILE: 10 Masquerade.flac Size: 12708403 Hash: BD882877026A37D2BE1F009C7CD18C79 Accuracy: -m0 Conclusion: CDDA 100% Signature: A03B268AEACD14268610EC90B0B6D4E47014330CFILE: 09 The dress.flac Size: 20104032 Hash: 1D907492FC9F53926240DB88020F54A8 Accuracy: -m0 Conclusion: CDDA 99% Signature: E9FA7C334B478CD82BC8468A7308993FE85BCD13FILE: 08 Heavy for everyone.flac Size: 28293778 Hash: 03ABB90ECE69A8A417AC84A03C8FBBD0 Accuracy: -m0 Conclusion: CDDA 100% Signature: D56F2208C611F5D813BD9FA113D33AF045E95FF1FILE: 07 Bugatti.flac Size: 19990991 Hash: 65574EF04E812A5D90B909B90D7F745F Accuracy: -m0 Conclusion: CDDA 100% Signature: A22EDAFCC153AAF2F5551C02634DE42D5BB586A9FILE: 06 The day before.flac Size: 21616417 Hash: BFA2351CE8A611365AE9056DFADE375B Accuracy: -m0 Conclusion: CDDA 100% Signature: 22C3E0BEFC7904C1CCCFEF534B886CD1A612D141
Centenaire biography

CENTENAIRE were formed in Paris in 2006. Its four members - Damien Mingus, Aurélien Potier, Orval Carlos Sibelius, Stephane Laporte - gathered together from various music spectra. They wanted to do a form of chamber folk but incidentally,
the band evolved into something different: the folk component is prevalent, but there are also traces of indie rock and post rock. The sound could be described as homogeneous folk-based meditative build-up, not so different from an average post-rock outfit, plus atmospheres of chamber ensemble and theatrical whimsy, often with dark complexion. However a presence of unusual instruments (even toys) is adding a counter-balance to their music. The bandmembers themselves described sound on their debut as a mixture of YO LA TENGO and Canterbury scene.

progarchives.com
Centenaire - Centenaire
3.59 | 4 ratings | 2 reviews | 0% 5 stars

Quirky, I still wonder about this word. So fitting word, so fitting genre - Eclectic. They're synonyms. Difficult to categorize, hard task to talk (write) about, but when done right, it's also very interesting album to listen.
This album basically does the right thing, it's beautiful, but too simple for me. And also soon began to be quite tiring listening, because this music is too same. Using same principles over and over again, unfortunately. Using techniques that are targeted to someone else. Don't take me bad, this music can be lovely at times, but there are also parts that fails to please. And because this is why a lot of this music should be about, then we have a problem.

This music can also remind soft Post Rock combined with quiet parts of Golden (60's) Miles Davis era (this feeling is supported by clarinet in The Dress). And if there is one thing for sure, it's ending of this album, let's say last 4 songs they're strong exactly as the name of very last one, Strong.
4(-), but only because my girl told me so and threatened me with knife (on my throat, sigh), it's Italian friendship.

Review by Marty McFly
progarchives.com
- Stéphane Laporte / drums, percussion, choir, metalophone, organ
- Damien Mingus/ charango, vocals, percussion, metalophone, organ, melodica
- Orval Carlos Sibelius/ guitars, vocals
- Aurélien Potier/ cello, clarinet, choir, metalophone, organ
Artwork – Vesolt
Executive Producer – Chief Inspector
Mastered By – Emiliano Flores
Melodica – Damien Mingus
Mixed By – Emiliano Flores (tracks: 2,3,6,7,11,12), Miguel Constantino (tracks: 1,4,5,8,9,10,13,14)
Recorded By – Emiliano Flores (tracks: 2,3,6,7,11,12), Miguel Constantino (tracks: 1,4,5,8,9,10,13,14)
Written-By – Centenaire



Трекер:  [ 27-Июн-2012 09:27 ]

  

Скачать .torrent

Размер .torrent файла 13 KB


Размер: 298 MB
Хэш (hash) релиза: 0cbd01749fa88390f6dfff9711e21e9e93f1ead8

Еще никто не оставлял запись к записи скачать торрент Centenaire - Centenaire - 2008, FLAC . Будь первым!

!Обратная связь