Скачать через торрент музыку Pavlovs Dog - At The Sound Of The Bell - 1976 бесплатно без регистрации torrent

Если у вас наблюдаются проблемы со скриншотами, переходом по ссылками, скачиванием торрентов - проблемы в блокировщике рекламы AdBlock. #хорошегоДня!


Статистика раздачи
Размер:  201 MB   |    Зарегистрирован:  5 лет 1 месяц   |    .torrent скачан:  23 раза   |   
Раздают:  1  
   
Загрузка...
 
Автор Сообщение

_N_

avatar _N_


Pavlov's Dog / At The Sound Of The Bell

Жанр: Progressive Rock
Страна-производитель диска: Austria
Год издания: 1976 (1988)
Издатель (лейбл): Columbia
Номер по каталогу: CD 32405
Страна: USA
Аудиокодек: FLAC (*.flac)
Тип рипа: image+.cue
Битрейт аудио: lossless
Продолжительность: 33:40:65
Источник (релизер): Собственная коллекция
Наличие сканов в содержимом раздачи: да
Треклист:
1. She Came Shining (4:24)
2. Standing Here With You (Megan's Song) (3:47)
3. Mersey (3:03)
4. Valkerie (5:22)
5. Try to Hang On (2:08)
6. Gold Nuggets (3:25)
7. She Breaks Like a Morning Sky (2:22)
8. Early Morning On (3:21)
9. Did You See Him Cry (5:36)
  
Exact Audio Copy V1.0 beta 3 from 29. August 2011

Отчёт EAC об извлечении, выполненном 26. июня 2012, 21:34

Pavlov's Dog / At The Sound Of The Bell

Дисковод: Optiarc DVD RW AD-7690H Adapter: 4 ID: 0

Режим чтения : ДостоверностьИспользование точного потока : ДаОтключение кэша аудио : ДаИспользование указателей C2 : Нет

Коррекция смещения при чтении : 48Способность читать области Lead-in и Lead-out : НетЗаполнение пропущенных сэмплов тишиной : ДаУдаление блоков с тишиной в начале и конце : НетПри вычислениях CRC использовались нулевые сэмплы : ДаИнтерфейс : Встроенный Win32-интерфейс для Win NT/2000

Выходной формат : Пользовательский кодировщикВыбранный битрейт : 1024 kBit/sКачество : ВысокийДобавление ID3-тега : НетУтилита сжатия : C:\Program Files (x86)\Exact Audio Copy\Flac\flac.exeДополнительные параметры : -V -8 -T "Date=%year%" -T "Genre=%genre%" %source%

TOC извлечённого CD

Трек | Старт | Длительность | Начальный сектор | Конечный сектор --------------------------------------------------------------------- 1 | 0:00.00 | 4:19.67 | 0 | 19491 2 | 4:19.67 | 3:52.18 | 19492 | 36909 3 | 8:12.10 | 3:05.32 | 36910 | 50816 4 | 11:17.42 | 5:21.73 | 50817 | 74964 5 | 16:39.40 | 2:10.65 | 74965 | 84779 6 | 18:50.30 | 3:28.42 | 84780 | 100421 7 | 22:18.72 | 2:28.38 | 100422 | 111559 8 | 24:47.35 | 3:12.00 | 111560 | 125959 9 | 27:59.35 | 5:39.30 | 125960 | 151414

Характеристики диапазона извлечения и сообщения об ошибках

Выбранный диапазон

Имя файла C:\Users\Толик\Desktop\Новая папка (2)\Pavlov's Dog - At The Sound Of The Bell.wav

Пиковый уровень 100.0 % Скорость извлечения 1.7 X Качество диапазона 100.0 % CRC теста E3045B94 CRC копии E3045B94 Копирование... OK

Ошибок не произошло

AccurateRip: сводка

Трек 1 : извлечено точно (доверие 2) [DF34A853] (AR v2)Трек 2 : извлечено точно (доверие 2) [5DB783BC] (AR v2)Трек 3 : извлечено точно (доверие 2) [109DAC86] (AR v2)Трек 4 : извлечено точно (доверие 2) [3F6C57EC] (AR v2)Трек 5 : извлечено точно (доверие 2) [839B043A] (AR v2)Трек 6 : извлечено точно (доверие 2) [AA6A063E] (AR v2)Трек 7 : извлечено точно (доверие 2) [E58E82AF] (AR v2)Трек 8 : извлечено точно (доверие 2) [D64F477D] (AR v2)Трек 9 : извлечено точно (доверие 2) [C1C75736] (AR v2)

Все треки извлечены точно

Конец отчёта

==== Контрольная сумма отчёта 6F5C09C44E561F127DDF436F9F675CC492EC998F2845A9CDA38C4C10CA62C985 ====
  
REM GENRE RockREM DATE 1976REM DISCID 6907E209REM COMMENT "ExactAudioCopy v1.0b3"PERFORMER "Pavlov's Dog"TITLE "At The Sound Of The Bell"FILE "Pavlov's Dog - At The Sound Of The Bell.flac" WAVE TRACK 01 AUDIO TITLE "She Came Shining" PERFORMER "Pavlov's Dog" INDEX 01 00:00:00 TRACK 02 AUDIO TITLE "Standing Here With You ( Megan's Song )" PERFORMER "Pavlov's Dog" INDEX 00 04:19:55 INDEX 01 04:19:67 TRACK 03 AUDIO TITLE "Mersey" PERFORMER "Pavlov's Dog" INDEX 00 08:10:52 INDEX 01 08:12:10 TRACK 04 AUDIO TITLE "Valkerie" PERFORMER "Pavlov's Dog" INDEX 00 11:17:30 INDEX 01 11:17:42 TRACK 05 AUDIO TITLE "Try To Hang On" PERFORMER "Pavlov's Dog" INDEX 00 16:39:30 INDEX 01 16:39:40 TRACK 06 AUDIO TITLE "Gold Nuggets" PERFORMER "Pavlov's Dog" INDEX 00 18:49:07 INDEX 01 18:50:30 TRACK 07 AUDIO TITLE "She Breaks Like A Morning Sky" PERFORMER "Pavlov's Dog" INDEX 00 22:18:30 INDEX 01 22:18:72 TRACK 08 AUDIO TITLE "Early Morning On" PERFORMER "Pavlov's Dog" INDEX 00 24:45:47 INDEX 01 24:47:35 TRACK 09 AUDIO TITLE "Did You See Him Cry" PERFORMER "Pavlov's Dog" INDEX 01 27:59:35
Acoustic Guitar– Thomas Nickeson
Bass [Fender]– Richard Stockton*
Composed By– Pavlov's Dog
Design– Andy Engel, John Berg
Drums– William Bruford*
Engineer– John Jansen
Engineer [Assistant Mixing]– Will Reid Dick*
Engineer [Assistant Recording]– Sam Ginsberg
Guitar– Elliot Randall*, Les Nicol
Keyboards– David Hamilton (8)
Lead Guitar– Stephen Scorfina*
Mandolin– Paul Prestopino
Mellotron, Bass, Percussion– Douglas Rayburn*
Organ– George Gerich, Mike Abene*
Photography– Jerry Abramowitz
Producer– Murray Krugman, Sandy Pearlman
Saxophone– Andy Mackay, Michael Brecker
Violin– Gavyn Wright
Vocals– High Wycombe Boys Choir
Voice, Acoustic Guitar, Guitar [Veleno]– David Surkamp


Трекер:  [ 27-Июн-2012 09:27 ]

  

Скачать .torrent

Размер .torrent файла 17 KB


Размер: 201 MB
Хэш (hash) релиза: 1ed11591a3f9aeb68154af011a1fed24b8387dea

Еще никто не оставлял запись к записи скачать торрент Pavlovs Dog - At The Sound Of The Bell - 1976 . Будь первым!

!Обратная связь