Скачать через торрент музыку Manfred Manns Earth Band - Masque & Plains Music бесплатно без регистрации torrent

Если у вас наблюдаются проблемы со скриншотами, переходом по ссылками, скачиванием торрентов - проблемы в блокировщике рекламы AdBlock. #хорошегоДня!


Статистика раздачи
Размер:  426 MB   |    Зарегистрирован:  5 лет 4 месяца   |    .torrent скачан:  33 раза   |   
Раздают:  1  
   
Загрузка...
 
Автор Сообщение

Centner1

avatar Centner1


Manfred Mann's Earth Band / Masque & Plains Music (2 in 1)

Жанр: Progressive/Art Rock
Год издания: 1987/1991
Страна: UK
Аудиокодек: APE (*.ape)
Тип рипа: image+.cue
Битрейт аудио: lossless
Продолжительность: 01:14:09
Наличие сканов в содержимом раздачи: да

Треклист:

01. Joybringer [0:02:25.89]
02. Sister Billies Bounce [0:02:13.74]
03. What you give is that you get [0:02:31.02]
04. Telegram to Monica [0:05:38.30]
05. Billies Orno Bounce [0:03:11.61]
06. A couple of mates [0:03:17.18]
07. Neptune [0:01:07.00]
08. Rivers run drive [0:03:03.20]
09. Hymn [0:03:55.08]
10. We're going wrong [0:03:57.68]
11. Planets Schmanets [0:02:35.57]
12. Geronimo's cadillac [0:04:43.84]
13. Kiowa [0:03:10.68]
14. Medicine song [0:04:14.30]
15. Woundes knee [0:04:48.02]
16. Sikelele [0:03:38.26]
17. Hunting bow [0:02:36.50]
18. Salmon fishing [0:04:02.60]
19. Laguna [0:04:55.66]
20. Instrumedicine song [0:04:04.40]
21. Sikelele II [0:03:58.33]
  
Exact Audio Copy V0.99 prebeta 3 from 28. July 2007

EAC extraction logfile from 28. February 2009, 8:43

Manfred Mann's earth band / Masque&Plains music

Used drive : PIONEER DVDRW DVR-K17B Adapter: 1 ID: 0

Read mode : SecureUtilize accurate stream : YesDefeat audio cache : YesMake use of C2 pointers : No

Read offset correction : 48Overread into Lead-In and Lead-Out : NoFill up missing offset samples with silence : YesDelete leading and trailing silent blocks : NoNull samples used in CRC calculations : YesUsed interface : Native Win32 interface for Win NT & 2000

Used output format : Internal WAV RoutinesSample format : 44.100 Hz; 16 Bit; Stereo

TOC of the extracted CD

Track | Start | Length | Start sector | End sector --------------------------------------------------------- 1 | 0:00.00 | 2:25.67 | 0 | 10941 2 | 2:25.67 | 2:13.56 | 10942 | 20972 3 | 4:39.48 | 2:31.02 | 20973 | 32299 4 | 7:10.50 | 5:38.23 | 32300 | 57672 5 | 12:48.73 | 3:11.46 | 57673 | 72043 6 | 16:00.44 | 3:17.14 | 72044 | 86832 7 | 19:17.58 | 1:07.00 | 86833 | 91857 8 | 20:24.58 | 3:03.15 | 91858 | 105597 9 | 23:27.73 | 3:55.06 | 105598 | 123228 10 | 27:23.04 | 3:57.51 | 123229 | 141054 11 | 31:20.55 | 2:35.43 | 141055 | 152722 12 | 33:56.23 | 4:43.63 | 152723 | 174010 13 | 38:40.11 | 3:10.51 | 174011 | 188311 14 | 41:50.62 | 4:14.23 | 188312 | 207384 15 | 46:05.10 | 4:48.02 | 207385 | 228986 16 | 50:53.12 | 3:38.20 | 228987 | 245356 17 | 54:31.32 | 2:36.38 | 245357 | 257094 18 | 57:07.70 | 4:02.45 | 257095 | 275289 19 | 61:10.40 | 4:55.50 | 275290 | 297464 20 | 66:06.15 | 4:04.30 | 297465 | 315794 21 | 70:10.45 | 3:58.25 | 315795 | 333669

Range status and errors

Selected range

Filename C:\Rapida081\BEMM - 2in1\Manfred Mann's earth band - Masque&Plains music.wav

Peak level 100.0 % Range quality 100.0 % Copy CRC B23AC781 Copy OK

No errors occurred

AccurateRip summary

Track 1 not present in databaseTrack 2 not present in databaseTrack 3 not present in databaseTrack 4 not present in databaseTrack 5 not present in databaseTrack 6 not present in databaseTrack 7 not present in databaseTrack 8 not present in databaseTrack 9 not present in databaseTrack 10 not present in databaseTrack 11 not present in databaseTrack 12 not present in databaseTrack 13 not present in databaseTrack 14 not present in databaseTrack 15 not present in databaseTrack 16 not present in databaseTrack 17 not present in databaseTrack 18 not present in databaseTrack 19 not present in databaseTrack 20 not present in databaseTrack 21 not present in database

None of the tracks are present in the AccurateRip database

End of status report
  
AUDIOCHECKER v2.0 beta (build 457) - by Dester - <a href="mailto:opdester@freemail.hu" class="postLink">opdester@freemail.hu</a>~~~~~~~~~~~~~~~~~~~~~~~~~~~~~~~~~~-=== НЕ РЕДАКТИРУЙТЕ ЭТОТ ФАЙЛ! ===-

Путь: ...\Manfred Mann's Earth Band - Masque & Plains music

1 -=- Manfred Mann's earth band - Masque&Plains music.ape -=- CDDA (100%)

76319876


Трекер:  [ 26-Июн-2012 18:32 ]

  

Скачать .torrent

Размер .torrent файла 17 KB


Размер: 426 MB
Хэш (hash) релиза: 7196a80d53ccc2adb469ddc1288a7597e04caf5b

Еще никто не оставлял запись к записи скачать торрент Manfred Manns Earth Band - Masque & Plains Music . Будь первым!

!Обратная связь