Скачать через торрент музыку Tony Conrad with Faust - Outside The Dream Syndicate бесплатно без регистрации torrent

Если у вас наблюдаются проблемы со скриншотами, переходом по ссылками, скачиванием торрентов - проблемы в блокировщике рекламы AdBlock. #хорошегоДня!


Статистика раздачи
Размер:  723 MB   |    Зарегистрирован:  5 лет 1 месяц   |    .torrent скачан:  33 раза   |   
Раздают:  1  
   
Загрузка...
 
Автор Сообщение

Centner1

avatar Centner1


Tony Conrad with Faust

Жанр: Krautrock, Experimental, Avant-Garde, Minimal
Страна-производитель диска: US
Год издания: 2002
Издатель (лейбл): Table Of The Elements
Номер по каталогу: Li 3
Аудиокодек: FLAC (*.flac)
Тип рипа: tracks+.cue
Битрейт аудио: lossless
Продолжительность: cd1 53:36; cd2 38:05;
Наличие сканов в содержимом раздачи: да

Треклист:
1.1 From The Side Of Man And Womankind 27:16
1.2 From The Side Of The Machine 26:21

2.1 The Pyre Of Angus Was In Kathmandu 3:38
2.2 The Death Of The Composer Was In 1962 3:16
2.3 From The Side Of Woman And Mankind (Complete Version) 31:11
  
Exact Audio Copy V0.99 prebeta 4 from 23. January 2008

EAC extraction logfile from 24. January 2009, 20:06

Tony Conrad With Faust / Outside the Dream Syndicate d01

Used drive : HP DVD Writer 640v Adapter: 7 ID: 0

Read mode : SecureUtilize accurate stream : YesDefeat audio cache : YesMake use of C2 pointers : No

Read offset correction : 618Overread into Lead-In and Lead-Out : NoFill up missing offset samples with silence : YesDelete leading and trailing silent blocks : NoNull samples used in CRC calculations : YesUsed interface : Native Win32 interface for Win NT & 2000Gap handling : Appended to previous track

Used output format : User Defined EncoderSelected bitrate : 768 kBit/sQuality : HighAdd ID3 tag : NoCommand line compressor : C:\Program Files\Exact Audio Copy\FLAC\FLAC.EXEAdditional command line options : -8 -V -T "ARTIST=%a" -T "TITLE=%t" -T "ALBUM=%g" -T "DATE=%y" -T "TRACKNUMBER=%n" -T "TOTALTRACKS=%x" -T "GENRE=%m" -T "ALBUMARTIST=%v" -T "ALBUM ARTIST=%v" -T "COMMENT=EAC V0.99 prebeta 4, Secure Mode, Test & Copy, Accurat

TOC of the extracted CD

Track | Start | Length | Start sector | End sector --------------------------------------------------------- 1 | 0:00.00 | 27:16.45 | 0 | 122744 2 | 27:16.45 | 26:19.50 | 122745 | 241219

Track 1

Filename D:\music\Non-uploaded Rips\Tony Conrad with Faust - Outside the Dream Syndicate (2002) [FLAC] {30th Anniversary Edition}\01\01 - From The Side Of Man And Womankind.wav

Pre-gap length 0:00:02.00

Peak level 99.8 % Track quality 100.0 % Test CRC 01E0F1FF Copy CRC 01E0F1FF Accurately ripped (confidence 1) [85C632A4] Copy OK

Track 2

Filename D:\music\Non-uploaded Rips\Tony Conrad with Faust - Outside the Dream Syndicate (2002) [FLAC] {30th Anniversary Edition}\01\02 - From the Side Of The Machine.wav

Peak level 98.1 % Track quality 99.9 % Test CRC 18A039C4 Copy CRC 18A039C4 Accurately ripped (confidence 1) [45CA1FB6] Copy OK

All tracks accurately ripped

No errors occurred

End of status report

Exact Audio Copy V0.99 prebeta 4 from 23. January 2008

EAC extraction logfile from 24. January 2009, 21:00

Tony Conrad With Faust / Outside The Dream Syndicate d02

Used drive : HP DVD Writer 640v Adapter: 7 ID: 0

Read mode : SecureUtilize accurate stream : YesDefeat audio cache : YesMake use of C2 pointers : No

Read offset correction : 618Overread into Lead-In and Lead-Out : NoFill up missing offset samples with silence : YesDelete leading and trailing silent blocks : NoNull samples used in CRC calculations : YesUsed interface : Native Win32 interface for Win NT & 2000Gap handling : Appended to previous track

Used output format : User Defined EncoderSelected bitrate : 768 kBit/sQuality : HighAdd ID3 tag : NoCommand line compressor : C:\Program Files\Exact Audio Copy\FLAC\FLAC.EXEAdditional command line options : -8 -V -T "ARTIST=%a" -T "TITLE=%t" -T "ALBUM=%g" -T "DATE=%y" -T "TRACKNUMBER=%n" -T "TOTALTRACKS=%x" -T "GENRE=%m" -T "ALBUMARTIST=%v" -T "ALBUM ARTIST=%v" -T "COMMENT=EAC V0.99 prebeta 4, Secure Mode, Test & Copy, Accurat

TOC of the extracted CD

Track | Start | Length | Start sector | End sector --------------------------------------------------------- 1 | 0:00.00 | 3:38.50 | 0 | 16399 2 | 3:38.50 | 3:16.22 | 16400 | 31121 3 | 6:54.72 | 31:09.50 | 31122 | 171346

Track 1

Filename D:\music\Non-uploaded Rips\Tony Conrad with Faust - Outside the Dream Syndicate (2002) [FLAC] {30th Anniversary Edition}\02\01 - The Pyre Of Angus Was In Kathmandu.wav

Pre-gap length 0:00:02.00

Peak level 99.9 % Track quality 100.0 % Test CRC 42985C26 Copy CRC 42985C26 Accurately ripped (confidence 1) [231493A6] Copy OK

Track 2

Filename D:\music\Non-uploaded Rips\Tony Conrad with Faust - Outside the Dream Syndicate (2002) [FLAC] {30th Anniversary Edition}\02\02 - he Death Of The Composer Was In 1962.wav

Peak level 98.3 % Track quality 100.0 % Test CRC 3D93DC62 Copy CRC 3D93DC62 Accurately ripped (confidence 1) [22B316EC] Copy OK

Track 3

Filename D:\music\Non-uploaded Rips\Tony Conrad with Faust - Outside the Dream Syndicate (2002) [FLAC] {30th Anniversary Edition}\02\03 - From The Side Of Woman And Mankind (Complete Version).wav

Peak level 100.0 % Track quality 100.0 % Test CRC BA516033 Copy CRC BA516033 Accurately ripped (confidence 1) [A9E2A276] Copy OK

All tracks accurately ripped

No errors occurred

End of status report
  
REM GENRE OtherREM DATE 1972REM DISCID 140C9002REM COMMENT "ExactAudioCopy v0.99pb4"PERFORMER "Tony Conrad With Faust"TITLE "Outside the Dream Syndicate (CD1)"FILE "01 - From The Side Of Man And Womankind.wav" WAVE TRACK 01 AUDIO TITLE "From The Side Of Man And Womankind" PERFORMER "Tony Conrad With Faust" FLAGS DCP INDEX 01 00:00:00FILE "02 - From the Side Of The Machine.wav" WAVE TRACK 02 AUDIO TITLE "From the Side Of The Machine" PERFORMER "Tony Conrad With Faust" FLAGS DCP INDEX 01 00:00:00

REM GENRE OtherREM DATE 1972REM DISCID 1108EC03REM COMMENT "ExactAudioCopy v0.99pb4"PERFORMER "Tony Conrad With Faust"TITLE "Outside The Dream Syndicate d02"FILE "01 - The Pyre Of Angus Was In Kathmandu.wav" WAVE TRACK 01 AUDIO TITLE "The Pyre Of Angus Was In Kathmandu" PERFORMER "Tony Conrad With Faust" FLAGS DCP INDEX 01 00:00:00FILE "02 - he Death Of The Composer Was In 1962.wav" WAVE TRACK 02 AUDIO TITLE "he Death Of The Composer Was In 1962" PERFORMER "Tony Conrad With Faust" FLAGS DCP INDEX 01 00:00:00FILE "03 - From The Side Of Woman And Mankind (Complete Version).wav" WAVE TRACK 03 AUDIO TITLE "From The Side Of Woman And Mankind (Complete Version)" PERFORMER "Tony Conrad With Faust" FLAGS DCP INDEX 01 00:00:00
This 2xCD deluxe boxed-set comes with:
- a 32 page booklet featuring an essay by David Fricke and original notes from the 1993 edition.
- a 93 page Table Of The Elements 2002 deluxe catalog.
- a poster of a 1994 Table Of The Elements showcase which featured Gate, Loren Mazzacane, Keiji Haino and Tony Conrad with Faust (for their first meeting in over 20 years).

Here's what we know: in October 1972, at a hippie commune in Wümme in southwestern Hamburg, a German art-rock collective bred on the stringent drone and skag-pop of the Velvet Underground hooked up with the young composer who gave that band its name - or rather, who handed Lou Reed the sadomasochism exposé whence the band derived its name. Tony Conrad and the members of Faust collaborated for three days on an album that would be released the following year in England and would tank immediately thereafter. The musicians did not communicate or collaborate throughout the following two decades.

Minimalism is unquestionably the wrong word; I prefer asceticism. Anyone familiar with the Zappa-like hysteria of Faust's first album or the searing kosmische of IV must imagine the sheer force of self-denial at work in implementing Conrad's vision: to have a deep base note tuned to the tonic on Conrad's violin and to have the drummer "tuned" to a rhythm that corresponded to the vibrations. Minimal in design, I suppose, but catastrophically huge in execution.

"From the Side of Man and Womankind" opens in dead motorik, the usually nimble percussive battery of bass guitarist Jean-Hervé Péron and drummer 'Zappi' Diermaier, stalled out to a hollow thud -- like the heartbeat of a machine. Conrad's violin bleats mournfully, endlessly; rising, breathing, sighing, screaming, but without ceasing: relentless. Faust resisted. Péron's second bass note, inserted against Conrad's wishes, adds a spring and thrust to the proceedings. Zappi's odd cymbal crash shatters like punctuation in a prayer. Faust producer Uwe Nettelbeck dulled the serrated violence of Conrad's violin, somehow rendering slow murder into long caresses. "The Side of Man and Womankind" runs like a conveyor belt through fog: going without moving, advancing, standing still.

"From the Side of the Machine" is oddly less mechanical than its counterpart. A half-hour in length, like "Man and Womankind", the "Machine" side ruminates with muted psychedelia: serpentine bass, ceremonial percussion, the purr and roar of Rudolf Sosna's humming synthesizer, Conrad's violin passing high above like an electrical storm in the upper air. There is a predatory quality to the "Side of the Machine": an encircling peril, a certain restlessness above and behind. Mind moves, as if hunted.

The Thirtieth Anniversary Edition of Outside the Dream Syndicate adds a second disc of material. Two brief tracks - both named with the young death of former Dream Syndicate comrade Angus Maclise in mind - offer the remaining fragments of those three days at the abandoned schoolhouse studio at Wümme. Both the slow burning "The Pyre of Angus was in Kathmandu" and the tremulous "The Death of the Composer Was in 1962" reveal a looser agenda in the sessions. In the latter piece, Conrad abandons the impassive drone of the first disc for an almost celebratory psych-rock. The second disc is rounded out by an alternate production of "From the Side of Man and Womankind", lacking the overdubbed violin lines of the album version.

So perhaps a little Zen, perhaps a little cataclysm. After all, as Lou Reed said, "It's the beginning of the New Age." And a few decades before that, a poet ended his long flirtation with Buddhism by joining the Church of England. In his conversion poem, however, he continued to pray with eastern paradoxes. "Teach us to care and not to care," TS Eliot intoned, "teach us to sit still." And this album finally begins to show us how.
Brent Sirota, "Outside The Dream Syndicate", Pitchfork Media 2002
Bass – Jean-Hervé Peron
Drums – Werner Diermaier
Engineer – Kurt Graupner
Producer – Uwe Nettelbeck
Synthesizer – Rudolf Sosna
Violin – Tony Conrad


Трекер:  [ 26-Июн-2012 18:30 ]

  

Скачать .torrent

Размер .torrent файла 17 KB


Размер: 723 MB
Хэш (hash) релиза: 798937764575fe0f32ae4c4244464a26e89fe572

Торренты, похожие на Tony Conrad with Faust - Outside The Dream Syndicate скачать торрент

Форум Название Автор Размер S L Добавлен
Rосk | Mеtаl | Аltеrnаtivе, Рunk, Indереndеnt (losslеss) ·· (Kraut-rock) Tony Conrad with Faust - Outside The Dream Syndicate - 1973. - 1993, APE (image+.cue), lossless Galfimbul 418962401400 MB 0 0 1297859737

15:35

16-Фев-11

Еще никто не оставлял запись к записи скачать торрент Tony Conrad with Faust - Outside The Dream Syndicate . Будь первым!

!Обратная связь