Скачать через торрент музыку Ice Cold July - There Will Come A Day - 1994, FLAC бесплатно без регистрации torrent

Если у вас наблюдаются проблемы со скриншотами, переходом по ссылками, скачиванием торрентов - проблемы в блокировщике рекламы AdBlock. #хорошегоДня!


Статистика раздачи
Размер:  407 MB   |    Зарегистрирован:  5 лет 1 месяц   |    .torrent скачан:  17 раз   |   
Раздают:  1  
   
Загрузка...
 
Автор Сообщение

_N_

avatar _N_


Ice Cold July / There Will Come A Day
Жанр: Hard Rock
Страна-производитель диска: USA
Год издания: 1994
Издатель (лейбл): Sector 2 Records
Номер по каталогу: 10002-2
Страна: USA
Аудиокодек: FLAC (*.flac)
Тип рипа: image+.cue
Битрейт аудио: lossless
Продолжительность: 58:51
Источник (релизер): church
Наличие сканов в содержимом раздачи: да
Треклист:
01 - City [04:42]
02 - Kick It Up [03:11]
03 - Home [04:47]
04 - As One [04:44]
05 - Back To You [04:57]
06 - The Fix [00:18]
07 - The Way It Was [05:09]
08 - Live - Amazing Grace [04:45]
09 - There Will Come A Day [07:38]
10 - The Believer [04:01]
11 - Angel In The Forest [04:04]
12 - Carry On [03:52]
13 - Untitled [06:38]
  
Exact Audio Copy V0.99 prebeta 5 from 4. May 2009

EAC extraction logfile from 25. September 2011, 22:48

Ice Cold July / There Will Come A Day

Used drive : PIONEER DVD-RW DVR-116D Adapter: 0 ID: 0

Read mode : SecureUtilize accurate stream : YesDefeat audio cache : YesMake use of C2 pointers : No

Read offset correction : 96Overread into Lead-In and Lead-Out : NoFill up missing offset samples with silence : YesDelete leading and trailing silent blocks : NoNull samples used in CRC calculations : YesUsed interface : Native Win32 interface for Win NT & 2000

Used output format : User Defined EncoderSelected bitrate : 32 kBit/sQuality : HighAdd ID3 tag : NoCommand line compressor : C:\Program Files\Exact Audio Copy\Flac\flac.exeAdditional command line options : -6 -V %s

TOC of the extracted CD

Track | Start | Length | Start sector | End sector --------------------------------------------------------- 1 | 0:00.00 | 4:42.50 | 0 | 21199 2 | 4:42.50 | 3:11.15 | 21200 | 35539 3 | 7:53.65 | 4:47.02 | 35540 | 57066 4 | 12:40.67 | 4:44.70 | 57067 | 78436 5 | 17:25.62 | 4:57.15 | 78437 | 100726 6 | 22:23.02 | 0:18.38 | 100727 | 102114 7 | 22:41.40 | 5:09.07 | 102115 | 125296 8 | 27:50.47 | 4:45.10 | 125297 | 146681 9 | 32:35.57 | 7:38.43 | 146682 | 181074 10 | 40:14.25 | 4:01.02 | 181075 | 199151 11 | 44:15.27 | 4:04.50 | 199152 | 217501 12 | 48:20.02 | 3:52.35 | 217502 | 234936 13 | 52:12.37 | 6:38.60 | 234937 | 264846

Range status and errors

Selected range

Filename D:\Ìóçûêà\Lossless\Ice Cold July - There Will Come A Day (1994)\Ice Cold July - There Will Come A Day.wav

Peak level 98.8 % Range quality 100.0 % Copy CRC 4224F34D Copy OK

No errors occurred

AccurateRip summary

Track 1 not present in databaseTrack 2 not present in databaseTrack 3 not present in databaseTrack 4 not present in databaseTrack 5 not present in databaseTrack 6 not present in databaseTrack 7 not present in databaseTrack 8 not present in databaseTrack 9 not present in databaseTrack 10 not present in databaseTrack 11 not present in databaseTrack 12 not present in databaseTrack 13 not present in database

None of the tracks are present in the AccurateRip database

End of status report
  
REM GENRE RockREM DATE 1994REM DISCID B40DCB0DREM COMMENT "ExactAudioCopy v0.99pb5"PERFORMER "Ice Cold July"TITLE "There Will Come A Day"FILE "Ice Cold July - There Will Come A Day.flac" WAVE TRACK 01 AUDIO TITLE "City" PERFORMER "Ice Cold July" INDEX 01 00:00:00 TRACK 02 AUDIO TITLE "Kick It Up" PERFORMER "Ice Cold July" INDEX 01 04:42:50 TRACK 03 AUDIO TITLE "Home" PERFORMER "Ice Cold July" INDEX 00 07:53:52 INDEX 01 07:53:65 TRACK 04 AUDIO TITLE "As One" PERFORMER "Ice Cold July" INDEX 00 12:40:45 INDEX 01 12:40:67 TRACK 05 AUDIO TITLE "Back To You" PERFORMER "Ice Cold July" INDEX 01 17:25:62 TRACK 06 AUDIO TITLE "The Fix" PERFORMER "Ice Cold July" INDEX 01 22:23:02 TRACK 07 AUDIO TITLE "The Way It Was" PERFORMER "Ice Cold July" INDEX 01 22:41:40 TRACK 08 AUDIO TITLE "Live - Amazing Grace" PERFORMER "Ice Cold July" INDEX 00 27:49:57 INDEX 01 27:50:47 TRACK 09 AUDIO TITLE "There Will Come A Day" PERFORMER "Ice Cold July" INDEX 01 32:35:57 TRACK 10 AUDIO TITLE "The Believer" PERFORMER "Ice Cold July" INDEX 01 40:14:25 TRACK 11 AUDIO TITLE "Angel In The Forest" PERFORMER "Ice Cold July" INDEX 00 44:15:20 INDEX 01 44:15:27 TRACK 12 AUDIO TITLE "Carry On" PERFORMER "Ice Cold July" INDEX 01 48:20:02 TRACK 13 AUDIO TITLE "Untitled" PERFORMER "Ice Cold July" INDEX 00 52:09:55 INDEX 01 52:12:37
Jason Michael - Lead Vocals, Acoustic Guitar
Mick Tinsley - Electric Guitar, Background Vocals
Carl Ray Hopper - Bass Guitar, Background Vocals
Mitch Wintner - Drums


Трекер:  [ 27-Июн-2012 09:27 ]

  

Скачать .torrent

Размер .torrent файла 17 KB


Размер: 407 MB
Хэш (hash) релиза: fb9f0299ef1440fe5bb2e61508962567e277640c

Еще никто не оставлял запись к записи скачать торрент Ice Cold July - There Will Come A Day - 1994, FLAC . Будь первым!

!Обратная связь