Скачать через торрент музыку C.T.P бесплатно без регистрации torrent

Если у вас наблюдаются проблемы со скриншотами, переходом по ссылками, скачиванием торрентов - проблемы в блокировщике рекламы AdBlock. #хорошегоДня!


Статистика раздачи
Размер:  334 MB   |    Зарегистрирован:  5 лет 1 месяц   |    .torrent скачан:  19 раз   |   
Раздают:  1  
   
Загрузка...
 
Автор Сообщение

_N_

avatar _N_


C.T.P (Christian Tolle Project) / The Higher They Climb

Жанр: Hard Rock
Страна-производитель диска: Пиратка
Год издания: 2012
Издатель (лейбл): FASTBALL MUSIC
Номер по каталогу: FB12C926
Страна: Germany
Аудиокодек: FLAC (*.flac)
Тип рипа: tracks+.cue
Битрейт аудио: lossless
Продолжительность: 46:07
Источник (релизер): Мой рип
Наличие сканов в содержимом раздачи: да
Треклист:
01 Too Young
02 The Higher They Climb
03 The Price Of Love
04 Blue Butterfly Day
05 Love Crash
06 Out Of My Head
07 In and Outta Love
08 Half That Man
09 That’s My Name
10 Roll On
11 Love Is Fire
12 Dreamchild
  
Exact Audio Copy V1.0 beta 3 from 29. August 2011

Отчёт EAC об извлечении, выполненном 25. июня 2012, 16:37

C.T.P. / The Higher They Climb

Дисковод: HL-DT-STDVDRAM GH24NS50 Adapter: 3 ID: 1

Режим чтения : ДостоверностьИспользование точного потока : ДаОтключение кэша аудио : ДаИспользование указателей C2 : Нет

Коррекция смещения при чтении : 667Способность читать области Lead-in и Lead-out : НетЗаполнение пропущенных сэмплов тишиной : ДаУдаление блоков с тишиной в начале и конце : НетПри вычислениях CRC использовались нулевые сэмплы : ДаИнтерфейс : Встроенный Win32-интерфейс для Win NT/2000Обработка зазоров : Добавлено к предыдущему треку

Выходной формат : Пользовательский кодировщикВыбранный битрейт : 320 kBit/sКачество : ВысокийДобавление ID3-тега : НетУтилита сжатия : C:\Users\Alex\Desktop\EAC_1.0_beta_3_Portable_Multilingual\App\EAC\FLAC\flac.exeДополнительные параметры : -V -8 -T "Date=%year%" -T "Genre=%genre%" %source%

TOC извлечённого CD

Трек | Старт | Длительность | Начальный сектор | Конечный сектор --------------------------------------------------------------------- 1 | 0:00.00 | 3:19.01 | 0 | 14925 2 | 3:19.01 | 3:51.26 | 14926 | 32276 3 | 7:10.27 | 3:39.04 | 32277 | 48705 4 | 10:49.31 | 4:06.48 | 48706 | 67203 5 | 14:56.04 | 3:27.63 | 67204 | 82791 6 | 18:23.67 | 3:53.35 | 82792 | 100301 7 | 22:17.27 | 3:45.42 | 100302 | 117218 8 | 26:02.69 | 4:33.01 | 117219 | 137694 9 | 30:35.70 | 4:08.53 | 137695 | 156347 10 | 34:44.48 | 4:05.55 | 156348 | 174777 11 | 38:50.28 | 3:05.17 | 174778 | 188669 12 | 41:55.45 | 4:11.56 | 188670 | 207550

Трек 1

Имя файла C:\Users\Alex\Desktop\РИП\01 Too Young.wav

Длина предзазора 0:00:02.00

Пиковый уровень 99.8 % Скорость извлечения 1.1 X Качество трека 100.0 % CRC теста F15AC444 CRC копии F15AC444 Трек не обнаружен в базе AccurateRip Копирование... OK

Трек 2

Имя файла C:\Users\Alex\Desktop\РИП\02 The Higher They Climb.wav

Длина предзазора 0:00:02.00

Пиковый уровень 99.8 % Скорость извлечения 1.2 X Качество трека 100.0 % CRC теста D768645E CRC копии D768645E Трек не обнаружен в базе AccurateRip Копирование... OK

Трек 3

Имя файла C:\Users\Alex\Desktop\РИП\03 The Price Of Love.wav

Длина предзазора 0:00:02.00

Пиковый уровень 99.8 % Скорость извлечения 1.3 X Качество трека 100.0 % CRC теста 7B750811 CRC копии 7B750811 Трек не обнаружен в базе AccurateRip Копирование... OK

Трек 4

Имя файла C:\Users\Alex\Desktop\РИП\04 Blue Butterfly Day.wav

Длина предзазора 0:00:02.00

Пиковый уровень 99.8 % Скорость извлечения 1.0 X Качество трека 99.8 % CRC теста 94371628 CRC копии 94371628 Трек не обнаружен в базе AccurateRip Копирование... OK

Трек 5

Имя файла C:\Users\Alex\Desktop\РИП\05 Love Crash.wav

Длина предзазора 0:00:01.74

Пиковый уровень 99.8 % Скорость извлечения 1.2 X Качество трека 99.9 % CRC теста 84273EC9 CRC копии 84273EC9 Трек не обнаружен в базе AccurateRip Копирование... OK

Трек 6

Имя файла C:\Users\Alex\Desktop\РИП\06 Out Of My Head.wav

Длина предзазора 0:00:02.00

Пиковый уровень 99.8 % Скорость извлечения 1.6 X Качество трека 100.0 % CRC теста A39F49E8 CRC копии A39F49E8 Трек не обнаружен в базе AccurateRip Копирование... OK

Трек 7

Имя файла C:\Users\Alex\Desktop\РИП\07 In And Outta Love.wav

Длина предзазора 0:00:02.00

Пиковый уровень 99.8 % Скорость извлечения 1.7 X Качество трека 100.0 % CRC теста 14F06838 CRC копии 14F06838 Трек не обнаружен в базе AccurateRip Копирование... OK

Трек 8

Имя файла C:\Users\Alex\Desktop\РИП\08 Half That Man.wav

Длина предзазора 0:00:02.00

Пиковый уровень 99.8 % Скорость извлечения 1.8 X Качество трека 100.0 % CRC теста 26D8281F CRC копии 26D8281F Трек не обнаружен в базе AccurateRip Копирование... OK

Трек 9

Имя файла C:\Users\Alex\Desktop\РИП\09 That's My Name.wav

Длина предзазора 0:00:02.00

Пиковый уровень 99.8 % Скорость извлечения 1.8 X Качество трека 100.0 % CRC теста 62BABB9B CRC копии 62BABB9B Трек не обнаружен в базе AccurateRip Копирование... OK

Трек 10

Имя файла C:\Users\Alex\Desktop\РИП\10 Roll On.wav

Длина предзазора 0:00:02.00

Пиковый уровень 99.8 % Скорость извлечения 1.9 X Качество трека 100.0 % CRC теста 994683D1 CRC копии 994683D1 Трек не обнаружен в базе AccurateRip Копирование... OK

Трек 11

Имя файла C:\Users\Alex\Desktop\РИП\11 Love Is Fire.wav

Длина предзазора 0:00:02.00

Пиковый уровень 99.8 % Скорость извлечения 1.6 X Качество трека 99.9 % CRC теста 6391C45D CRC копии 6391C45D Трек не обнаружен в базе AccurateRip Копирование... OK

Трек 12

Имя файла C:\Users\Alex\Desktop\РИП\12 Dreamchild.wav

Длина предзазора 0:00:02.00

Пиковый уровень 99.8 % Скорость извлечения 2.1 X Качество трека 100.0 % CRC теста F702B6D9 CRC копии F702B6D9 Трек не обнаружен в базе AccurateRip Копирование... OK

Ни одного трека нет в базе AccurateRip

Ошибок не произошло

Конец отчёта

==== Контрольная сумма отчёта E2DB86D3AE8A85A3D641C543D56F481832C8D721FF9A774EE55D243631664CA1 ====
  
REM GENRE "Hard Rock"REM DATE 2012REM DISCID 960ACF0CREM COMMENT "ExactAudioCopy v1.0b3"CATALOG 4260101558040PERFORMER "C.T.P."TITLE "The Higher They Climb"FILE "01 Too Young.wav" WAVE TRACK 01 AUDIO TITLE "Too Young" PERFORMER "C.T.P." ISRC DEAT71206932 INDEX 01 00:00:00 TRACK 02 AUDIO TITLE "The Higher They Climb" PERFORMER "C.T.P." ISRC DEAT71206933 INDEX 00 03:17:01FILE "02 The Higher They Climb.wav" WAVE INDEX 01 00:00:00 TRACK 03 AUDIO TITLE "The Price Of Love" PERFORMER "C.T.P." ISRC DEAT71206934 INDEX 00 03:49:26FILE "03 The Price Of Love.wav" WAVE INDEX 01 00:00:00 TRACK 04 AUDIO TITLE "Blue Butterfly Day" PERFORMER "C.T.P." ISRC DEAT71206935 INDEX 00 03:37:04FILE "04 Blue Butterfly Day.wav" WAVE INDEX 01 00:00:00 TRACK 05 AUDIO TITLE "Love Crash" PERFORMER "C.T.P." ISRC DEAT71206936 INDEX 00 04:04:49FILE "05 Love Crash.wav" WAVE INDEX 01 00:00:00 TRACK 06 AUDIO TITLE "Out Of My Head" PERFORMER "C.T.P." ISRC DEAT71206937 INDEX 00 03:25:63FILE "06 Out Of My Head.wav" WAVE INDEX 01 00:00:00 TRACK 07 AUDIO TITLE "In And Outta Love" PERFORMER "C.T.P." ISRC DEAT71206938 INDEX 00 03:51:35FILE "07 In And Outta Love.wav" WAVE INDEX 01 00:00:00 TRACK 08 AUDIO TITLE "Half That Man" PERFORMER "C.T.P." ISRC DEAT71206939 INDEX 00 03:43:42FILE "08 Half That Man.wav" WAVE INDEX 01 00:00:00 TRACK 09 AUDIO TITLE "That's My Name" PERFORMER "C.T.P." ISRC DEAT71206940 INDEX 00 04:31:01FILE "09 That's My Name.wav" WAVE INDEX 01 00:00:00 TRACK 10 AUDIO TITLE "Roll On" PERFORMER "C.T.P." ISRC DEAT71206941 INDEX 00 04:06:53FILE "10 Roll On.wav" WAVE INDEX 01 00:00:00 TRACK 11 AUDIO TITLE "Love Is Fire" PERFORMER "C.T.P." ISRC DEAT71206942 INDEX 00 04:03:55FILE "11 Love Is Fire.wav" WAVE INDEX 01 00:00:00 TRACK 12 AUDIO TITLE "Dreamchild" PERFORMER "C.T.P." ISRC DEAT71206943 INDEX 00 03:03:17FILE "12 Dreamchild.wav" WAVE INDEX 01 00:00:00
Christian Tolle - Guitars, Bass
Morris Adriaens - Keyboards, Guitar
Ben Granfelt - Guitar
Andy Susemihl - Guitar
Philipp Artzt - Drums, Keyboards
Michael Landau - Guitar

Vocals:
David Reece - 3, 5, 9, 11
Leon Goewie - 2, 7
Paul Shortino - 1, 12
Michael Voss - 4, 8 & 10


Трекер:  [ 27-Июн-2012 09:27 ]

  

Скачать .torrent

Размер .torrent файла 14 KB


Размер: 334 MB
Хэш (hash) релиза: 46f217b67084b01f7f7d0e4322e95e0d6d21433f

Еще никто не оставлял запись к записи скачать торрент C.T.P . Будь первым!

!Обратная связь