Скачать через торрент музыку Emerson, Lake & Palmer - Brain Salad Surgery бесплатно без регистрации torrent

Если у вас наблюдаются проблемы со скриншотами, переходом по ссылками, скачиванием торрентов - проблемы в блокировщике рекламы AdBlock. #хорошегоДня!


Статистика раздачи
Размер:  1020 MB   |    Зарегистрирован:  5 лет 1 месяц   |    .torrent скачан:  45 раз   |   
Раздают:  1  
   
Загрузка...
 
Автор Сообщение

Centner1

avatar Centner1


Emerson, Lake & Palmer - Brain Salad Surgery (Deluxe 3CD Ed.)

Жанр: Progressive Rock
Год выпуска диска: 1973, 2008
Производитель диска: EU
Аудио кодек: FLAC
Тип рипа: tracks+.cue
Битрейт аудио: lossless
Продолжительность: 44:58 + 64:53 + 44:58
Наличие сканов в содержимом раздачи:

Состав:
- Keith Emerson / organ, piano, Harpsichord, accordion, Custom-built Moog synths, Moog polyphonic ensemble, vocals on "Karn Evil 9 (1st Impression - Part 1)"
- Greg Lake / vocals, bass, Zemaitis electric 6-string and 12-string guitars
- Carl Palmer / drums, percussion, percussion synthesizers
CD1
01. Jerusalem (2:44)
02. Toccata (7:23)
03. Still... You Turn Me On (2:53)
04. Benny The Bouncer (2:21)
05. Karn Evil 9 (1st Impression - Part 1) (8:44)
06. Karn Evil 9 (1st Impression - Part 2) (4:47)
07. Karn Evil 9 (2nd Impression) (7:07)
08. Karn Evil 9 (3rd Impression) (9:03)

CD2 (Bonus Tracks)
01 - When The Apple Blossoms Bloom In The Windmills Of Your Mind I'll Be Your Valentine Time
02 - Brain Salad Surgery
03 - Karn Evil 9- 3rd Impression (Original Backing Track)
04 - Jerusalem
05 - Still ... You Turn Me On
06 - Toccatta (First Mix)
07 - Karn Evil 9 1st Impression #1 (35th Anniversary Version)
08 - Karn Evil 9 1st Impression #2 (35th Anniversary Version)
09 - Karn Evil 9 2nd Impression (35th Anniversary Version)
10 - Karn Evil 9 3rd Impression (35th Anniversary Version)
11 - Excerpts From Brain Salad Surgery (NME Flexidisc)
12 - Hidden Track

CD3 (Bonus SACD - Audio 5.1 STS / 2.0 LPCM Stereo)
01. Jerusalem (2:44)
02. Toccata (7:23)
03. Still... You Turn Me On (2:53)
04. Benny The Bouncer (2:21)
05. Karn Evil 9 (1st Impression - Part 1) (8:34)
06. Karn Evil 9 (1st Impression - Part 2) (4:47)
07. Karn Evil 9 (2nd Impression) (7:07)
08. Karn Evil 9 (3rd Impression) (9:05)





<!--/code_head--> <div class="c-body">
Exact Audio Copy V0.99 prebeta 4 from 23. January 2008

EAC extraction logfile from 30. October 2008, 9:13

Emerson, Lake & Palmer / Brain Salad Surgery (Deluxe Edition) Disc 1

Used drive : HL-DT-STDVDRRW GSA-H30L  Adapter: 0 ID: 1

Read mode        : Secure
Utilize accurate stream : Yes
Defeat audio cache   : Yes
Make use of C2 pointers : No

Read offset correction           : 102
Overread into Lead-In and Lead-Out     : No
Fill up missing offset samples with silence : Yes
Delete leading and trailing silent blocks  : No
Null samples used in CRC calculations    : Yes
Used interface               : Installed external ASPI interface
Gap handling                : Appended to previous track

Used output format       : User Defined Encoder
Selected bitrate        : 1024 kBit/s
Quality             : High
Add ID3 tag           : No
Command line compressor     : C:\Program Files\Exact Audio Copy\Flac\flac.exe
Additional command line options : -8 -V -T "ARTIST=%a" -T "TITLE=%t" -T "ALBUM=%g" -T "DATE=%y" -T "TRACKNUMBER=%n" -T "GENRE=%m" -T "COMMENT=EAC FLAC -8-oan" %s

TOC of the extracted CD

   Track |  Start | Length | Start sector | End sector
  ---------------------------------------------------------
    1 | 0:00.00 | 2:45.73 |     0  |  12447
    2 | 2:45.73 | 7:22.45 |   12448  |  45642
    3 | 10:08.43 | 2:53.19 |   45643  |  58636
    4 | 13:01.62 | 2:21.29 |   58637  |  69240
    5 | 15:23.16 | 8:34.74 |   69241  |  107864
    6 | 23:58.15 | 4:48.11 |  107865  |  129475
    7 | 28:46.26 | 7:07.12 |  129476  |  161512
    8 | 35:53.38 | 9:05.27 |  161513  |  202414

Track 1

   Filename C:\oan\01 - Jerusalem.wav

   Pre-gap length 0:00:02.00

   Peak level 98.8 %
   Track quality 100.0 %
   Test CRC 659C02A1
   Copy CRC 659C02A1
   Track not present in AccurateRip database
   Copy OK

Track 2

   Filename C:\oan\02 - Toccata (An Adaptation Of Ginastera's 1St Piano Concerto, 4Th Movement).wav

   Peak level 98.8 %
   Track quality 100.0 %
   Test CRC 07F3C6B1
   Copy CRC 07F3C6B1
   Track not present in AccurateRip database
   Copy OK

Track 3

   Filename C:\oan\03 - Still...You Turn Me On.wav

   Pre-gap length 0:00:02.72

   Peak level 98.8 %
   Track quality 100.0 %
   Test CRC FDF51D08
   Copy CRC FDF51D08
   Track not present in AccurateRip database
   Copy OK

Track 4

   Filename C:\oan\04 - Benny The Bouncer.wav

   Pre-gap length 0:00:01.00

   Peak level 98.8 %
   Track quality 100.0 %
   Test CRC 53545AEA
   Copy CRC 53545AEA
   Track not present in AccurateRip database
   Copy OK

Track 5

   Filename C:\oan\05 - Karn Evil 9- 1st Impression - Part 1.wav

   Pre-gap length 0:00:01.89

   Peak level 98.8 %
   Track quality 100.0 %
   Test CRC 7A0FA834
   Copy CRC 7A0FA834
   Track not present in AccurateRip database
   Copy OK

Track 6

   Filename C:\oan\06 - Karn Evil 9- 1st Impression - Part 2.wav

   Peak level 98.8 %
   Track quality 100.0 %
   Test CRC 70C404BC
   Copy CRC 70C404BC
   Track not present in AccurateRip database
   Copy OK

Track 7

   Filename C:\oan\07 - Karn Evil 9- 2nd Impression.wav

   Peak level 98.8 %
   Track quality 100.0 %
   Test CRC D6A3F36A
   Copy CRC D6A3F36A
   Track not present in AccurateRip database
   Copy OK

Track 8

   Filename C:\oan\08 - Karn Evil 9- 3rd Impression.wav

   Peak level 98.8 %
   Track quality 100.0 %
   Test CRC 0E45DE05
   Copy CRC 0E45DE05
   Track not present in AccurateRip database
   Copy OK

None of the tracks are present in the AccurateRip database

No errors occurred

End of status report
<!--/code--><!--/code_wrap-->
<!--/code_head--> <div class="c-body">
Exact Audio Copy V0.99 prebeta 4 from 23. January 2008

EAC extraction logfile from 30. October 2008, 11:37

Emerson Lake & Palmer / Brain Salad Surgery (Bonus Disc)

Used drive : HL-DT-STDVDRRW GSA-H30L  Adapter: 0 ID: 1

Read mode        : Secure
Utilize accurate stream : Yes
Defeat audio cache   : Yes
Make use of C2 pointers : No

Read offset correction           : 102
Overread into Lead-In and Lead-Out     : No
Fill up missing offset samples with silence : Yes
Delete leading and trailing silent blocks  : No
Null samples used in CRC calculations    : Yes
Used interface               : Installed external ASPI interface
Gap handling                : Appended to previous track

Used output format       : User Defined Encoder
Selected bitrate        : 1024 kBit/s
Quality             : High
Add ID3 tag           : No
Command line compressor     : C:\Program Files\Exact Audio Copy\Flac\flac.exe
Additional command line options : -8 -V -T "ARTIST=%a" -T "TITLE=%t" -T "ALBUM=%g" -T "DATE=%y" -T "TRACKNUMBER=%n" -T "GENRE=%m" -T "COMMENT=EAC FLAC -8-oan" %s

TOC of the extracted CD

   Track |  Start | Length | Start sector | End sector
  ---------------------------------------------------------
    1 | 0:00.00 | 3:58.56 |     0  |  17905
    2 | 3:58.56 | 3:08.01 |   17906  |  32006
    3 | 7:06.57 | 9:09.40 |   32007  |  73221
    4 | 16:16.22 | 2:46.28 |   73222  |  85699
    5 | 19:02.50 | 2:53.29 |   85700  |  98703
    6 | 21:56.04 | 7:22.45 |   98704  |  131898
    7 | 29:18.49 | 8:34.47 |  131899  |  170495
    8 | 37:53.21 | 4:48.33 |  170496  |  192128
    9 | 42:41.54 | 7:07.08 |  192129  |  224161
    10 | 49:48.62 | 9:05.24 |  224162  |  265060
    11 | 58:54.11 | 3:07.35 |  265061  |  279120
    12 | 62:01.46 | 2:52.08 |  279121  |  292028

Track 1

   Filename C:\oan\01 - When The Apple Blossoms Bloom In The Windmills Of Your Mind I'll Be Your Valentine Time.wav

   Pre-gap length 0:00:02.00

   Peak level 98.8 %
   Track quality 99.9 %
   Test CRC FA3D1903
   Copy CRC FA3D1903
   Track not present in AccurateRip database
   Copy OK

Track 2

   Filename C:\oan\02 - Brain Salad Surgery.wav

   Pre-gap length 0:00:01.76

   Peak level 98.8 %
   Track quality 100.0 %
   Test CRC F99AFE11
   Copy CRC F99AFE11
   Track not present in AccurateRip database
   Copy OK

Track 3

   Filename C:\oan\03 - Karn Evil 9- 3rd Impression (Original Backing Track).wav

   Pre-gap length 0:00:01.77

   Peak level 98.8 %
   Track quality 100.0 %
   Test CRC 82F9BD09
   Copy CRC 82F9BD09
   Track not present in AccurateRip database
   Copy OK

Track 4

   Filename C:\oan\04 - Jerusalem.wav

   Pre-gap length 0:00:01.64

   Peak level 98.8 %
   Track quality 99.9 %
   Test CRC 027AB0A7
   Copy CRC 027AB0A7
   Track not present in AccurateRip database
   Copy OK

Track 5

   Filename C:\oan\05 - Still ... You Turn Me On.wav

   Pre-gap length 0:00:01.58

   Peak level 98.8 %
   Track quality 100.0 %
   Test CRC 7E6E5B06
   Copy CRC 7E6E5B06
   Track not present in AccurateRip database
   Copy OK

Track 6

   Filename C:\oan\06 - Toccatta (First Mix).wav

   Peak level 98.8 %
   Track quality 100.0 %
   Test CRC C6416AE7
   Copy CRC C6416AE7
   Track not present in AccurateRip database
   Copy OK

Track 7

   Filename C:\oan\07 - Karn Evil 9 1st Impression #1 (35th Anniversary Version).wav

   Peak level 98.8 %
   Track quality 100.0 %
   Test CRC C9203622
   Copy CRC C9203622
   Track not present in AccurateRip database
   Copy OK

Track 8

   Filename C:\oan\08 - Karn Evil 9 1st Impression #2 (35th Anniversary Version).wav

   Peak level 98.8 %
   Track quality 100.0 %
   Test CRC 9FB7B0A5
   Copy CRC 9FB7B0A5
   Track not present in AccurateRip database
   Copy OK

Track 9

   Filename C:\oan\09 - Karn Evil 9 2nd Impression (35th Anniversary Version).wav

   Peak level 98.8 %
   Track quality 100.0 %
   Test CRC 573615F3
   Copy CRC 573615F3
   Track not present in AccurateRip database
   Copy OK

Track 10

   Filename C:\oan\10 - Karn Evil 9 3rd Impression (35th Anniversary Version).wav

   Peak level 98.8 %
   Track quality 100.0 %
   Test CRC 2994343E
   Copy CRC 2994343E
   Track not present in AccurateRip database
   Copy OK

Track 11

   Filename C:\oan\11 - Excerpts From Brain Salad Surgery (NME Flexidisc).wav

   Pre-gap length 0:00:01.36

   Peak level 98.8 %
   Track quality 100.0 %
   Test CRC 86B47973
   Copy CRC 86B47973
   Track not present in AccurateRip database
   Copy OK

Track 12

   Filename C:\oan\12 - Hidden Track.wav

   Pre-gap length 0:00:00.62

   Peak level 98.8 %
   Track quality 100.0 %
   Test CRC D5933DB4
   Copy CRC D5933DB4
   Track not present in AccurateRip database
   Copy OK

None of the tracks are present in the AccurateRip database

No errors occurred

End of status report
<!--/code--><!--/code_wrap-->
<!--/code_head--> <div class="c-body">
EAC extraction logfile from 21. October 2008, 9:34 for CD
Emerson,Lake & Palmer / Brain Salad Surgery (Deluxe Edition) (Disc3)

Used drive : PIONEER DVD-RW DVR-108  Adapter: 3 ID: 0
Read mode  : Secure with NO C2, accurate stream, disable cache
Read offset correction : 48
Overread into Lead-In and Lead-Out : No

Used output format : C:\Program Files\FLAC\flac.exe  (User Defined Encoder)
           128 kBit/s
           Additional command line options : -8 -V -T "ARTIST=%a" -T "TITLE=%t" -T "ALBUM=%g" -T "DATE=%y" -T "TRACKNUMBER=%n" -T "GENRE=%m" -T "COMMENT=EAC FLAC -8" %s

Other options   :
  Fill up missing offset samples with silence : Yes
  Delete leading and trailing silent blocks : No
  Native Win32 interface for Win NT & 2000

Track 1
   Filename C:\Lossless\Emerson ,Lake & Palmer - Brain Salad Surgery (1973) [FLAC] (2008 Deluxe Edition)\Disc3\01 - Jerusalem.wav

   Pre-gap length 0:00:02.00

   Peak level 97.5 %
   Track quality 100.0 %
   Test CRC 23E1345D
   Copy CRC 23E1345D
   Copy OK

Track 2
   Filename C:\Lossless\Emerson ,Lake & Palmer - Brain Salad Surgery (1973) [FLAC] (2008 Deluxe Edition)\Disc3\02 - Toccata (An Adaptation Of Ginastera's 1St Piano Concerto, 4th Movement).wav

   Peak level 95.4 %
   Track quality 100.0 %
   Test CRC AA314605
   Copy CRC AA314605
   Copy OK

Track 3
   Filename C:\Lossless\Emerson ,Lake & Palmer - Brain Salad Surgery (1973) [FLAC] (2008 Deluxe Edition)\Disc3\03 - Still...You Turn Me On.wav

   Pre-gap length 0:00:01.35

   Peak level 93.2 %
   Track quality 100.0 %
   Test CRC E62E2DBB
   Copy CRC E62E2DBB
   Copy OK

Track 4
   Filename C:\Lossless\Emerson ,Lake & Palmer - Brain Salad Surgery (1973) [FLAC] (2008 Deluxe Edition)\Disc3\04 - Benny The Bouncer.wav

   Peak level 93.9 %
   Track quality 100.0 %
   Test CRC 17C2A2C6
   Copy CRC 17C2A2C6
   Copy OK

Track 5
   Filename C:\Lossless\Emerson ,Lake & Palmer - Brain Salad Surgery (1973) [FLAC] (2008 Deluxe Edition)\Disc3\05 - Karn Evil 9- 1st Impression - Part 1.wav

   Pre-gap length 0:00:01.66

   Peak level 94.1 %
   Track quality 100.0 %
   Test CRC 02423E56
   Copy CRC 02423E56
   Copy OK

Track 6
   Filename C:\Lossless\Emerson ,Lake & Palmer - Brain Salad Surgery (1973) [FLAC] (2008 Deluxe Edition)\Disc3\06 - Karn Evil 9- 1st Impression - Part 2.wav

   Peak level 94.0 %
   Track quality 100.0 %
   Test CRC 8B5EBD78
   Copy CRC 8B5EBD78
   Copy OK

Track 7
   Filename C:\Lossless\Emerson ,Lake & Palmer - Brain Salad Surgery (1973) [FLAC] (2008 Deluxe Edition)\Disc3\07 - Karn Evil 9- 2nd Impression.wav

   Peak level 93.4 %
   Track quality 100.0 %
   Test CRC 74F1C9DE
   Copy CRC 74F1C9DE
   Copy OK

Track 8
   Filename C:\Lossless\Emerson ,Lake & Palmer - Brain Salad Surgery (1973) [FLAC] (2008 Deluxe Edition)\Disc3\08 - Karn Evil 9- 3rd Impression.wav

   Peak level 94.0 %
   Track quality 100.0 %
   Test CRC 513D1FBA
   Copy CRC 513D1FBA
   Copy OK

No errors occured

End of status report
<!--/code--><!--/code_wrap-->
<!--/code_head--> <div class="c-body">
REM GENRE "Progressive Rock"
REM DATE 2008
REM DISCID 610A8A08
REM COMMENT "ExactAudioCopy v0.99pb4"
PERFORMER "Emerson, Lake & Palmer"
TITLE "Brain Salad Surgery (Deluxe Edition) Disc 1"
FILE "01 - Jerusalem.wav" WAVE
 TRACK 01 AUDIO
  TITLE "Jerusalem"
  PERFORMER "Emerson, Lake & Palmer"
  INDEX 01 00:00:00
FILE "02 - Toccata (An Adaptation Of Ginastera's 1St Piano Concerto, 4Th Movement).wav" WAVE
 TRACK 02 AUDIO
  TITLE "Toccata (An Adaptation Of Ginastera's 1St Piano Concerto, 4Th Movement)"
  PERFORMER "Emerson, Lake & Palmer"
  INDEX 01 00:00:00
 TRACK 03 AUDIO
  TITLE "Still...You Turn Me On"
  PERFORMER "Emerson, Lake & Palmer"
  INDEX 00 07:19:66
FILE "03 - Still...You Turn Me On.wav" WAVE
  INDEX 01 00:00:00
 TRACK 04 AUDIO
  TITLE "Benny The Bouncer"
  PERFORMER "Emerson, Lake & Palmer"
  INDEX 00 02:52:19
FILE "04 - Benny The Bouncer.wav" WAVE
  INDEX 01 00:00:00
 TRACK 05 AUDIO
  TITLE "Karn Evil 9: 1st Impression - Part 1"
  PERFORMER "Emerson, Lake & Palmer"
  INDEX 00 02:19:37
FILE "05 - Karn Evil 9- 1st Impression - Part 1.wav" WAVE
  INDEX 01 00:00:00
FILE "06 - Karn Evil 9- 1st Impression - Part 2.wav" WAVE
 TRACK 06 AUDIO
  TITLE "Karn Evil 9: 1st Impression - Part 2"
  PERFORMER "Emerson, Lake & Palmer"
  INDEX 01 00:00:00
FILE "07 - Karn Evil 9- 2nd Impression.wav" WAVE
 TRACK 07 AUDIO
  TITLE "Karn Evil 9: 2nd Impression"
  PERFORMER "Emerson, Lake & Palmer"
  INDEX 01 00:00:00
FILE "08 - Karn Evil 9- 3rd Impression.wav" WAVE
 TRACK 08 AUDIO
  TITLE "Karn Evil 9: 3rd Impression"
  PERFORMER "Emerson, Lake & Palmer"
  INDEX 01 00:00:00

 - - - - - - - - - - - - - - - - - - - - - - - - - - - - - - - - -

REM GENRE "Progressive Rock"
REM DATE 2008
REM DISCID A70F350C
REM COMMENT "ExactAudioCopy v0.99pb4"
PERFORMER "Emerson Lake & Palmer"
TITLE "Brain Salad Surgery (Bonus Disc)"
FILE "01 - When The Apple Blossoms Bloom In The Windmills Of Your Mind I'll Be Your Valentine Time.wav" WAVE
 TRACK 01 AUDIO
  TITLE "When The Apple Blossoms Bloom In The Windmills Of Your Mind I'll Be Your Vale..."
  PERFORMER "Emerson Lake & Palmer"
  INDEX 01 00:00:00
 TRACK 02 AUDIO
  TITLE "Brain Salad Surgery"
  PERFORMER "Emerson Lake & Palmer"
  INDEX 00 03:56:74
FILE "02 - Brain Salad Surgery.wav" WAVE
  INDEX 01 00:00:00
 TRACK 03 AUDIO
  TITLE "Karn Evil 9: 3rd Impression (Original Backing Track)"
  PERFORMER "Emerson Lake & Palmer"
  INDEX 00 03:06:18
FILE "03 - Karn Evil 9- 3rd Impression (Original Backing Track).wav" WAVE
  INDEX 01 00:00:00
 TRACK 04 AUDIO
  TITLE "Jerusalem"
  PERFORMER "Emerson Lake & Palmer"
  INDEX 00 09:07:67
FILE "04 - Jerusalem.wav" WAVE
  INDEX 01 00:00:00
 TRACK 05 AUDIO
  TITLE "Still ... You Turn Me On"
  PERFORMER "Emerson Lake & Palmer"
  INDEX 00 02:44:59
FILE "05 - Still ... You Turn Me On.wav" WAVE
  INDEX 01 00:00:00
FILE "06 - Toccatta (First Mix).wav" WAVE
 TRACK 06 AUDIO
  TITLE "Toccatta (First Mix)"
  PERFORMER "Emerson Lake & Palmer"
  INDEX 01 00:00:00
FILE "07 - Karn Evil 9 1st Impression #1 (35th Anniversary Version).wav" WAVE
 TRACK 07 AUDIO
  TITLE "Karn Evil 9 1st Impression #1 (35th Anniversary Version)"
  PERFORMER "Emerson Lake & Palmer"
  INDEX 01 00:00:00
FILE "08 - Karn Evil 9 1st Impression #2 (35th Anniversary Version).wav" WAVE
 TRACK 08 AUDIO
  TITLE "Karn Evil 9 1st Impression #2 (35th Anniversary Version)"
  PERFORMER "Emerson Lake & Palmer"
  INDEX 01 00:00:00
FILE "09 - Karn Evil 9 2nd Impression (35th Anniversary Version).wav" WAVE
 TRACK 09 AUDIO
  TITLE "Karn Evil 9 2nd Impression (35th Anniversary Version)"
  PERFORMER "Emerson Lake & Palmer"
  INDEX 01 00:00:00
FILE "10 - Karn Evil 9 3rd Impression (35th Anniversary Version).wav" WAVE
 TRACK 10 AUDIO
  TITLE "Karn Evil 9 3rd Impression (35th Anniversary Version)"
  PERFORMER "Emerson Lake & Palmer"
  INDEX 01 00:00:00
 TRACK 11 AUDIO
  TITLE "Excerpts From Brain Salad Surgery (NME Flexidisc)"
  PERFORMER "Emerson Lake & Palmer"
  INDEX 00 09:03:72
FILE "11 - Excerpts From Brain Salad Surgery (NME Flexidisc).wav" WAVE
  INDEX 01 00:00:00
 TRACK 12 AUDIO
  TITLE "Hidden Track"
  PERFORMER "Emerson Lake & Palmer"
  INDEX 00 03:06:63
FILE "12 - Hidden Track.wav" WAVE
  INDEX 01 00:00:00

- - - - - - - - - - - - - - - - - - - - - - - - - - - - - - - - -

REM GENRE Rock
REM DATE 1973
REM DISCID 620A8A08
REM COMMENT "ExactAudioCopy v0.95b3"
PERFORMER "Emerson,Lake & Palmer"
TITLE "Brain Salad Surgery (Deluxe Edition) (Disc3)"
FILE "01 - Jerusalem.wav" WAVE
 TRACK 01 AUDIO
  TITLE "Jerusalem"
  PERFORMER "Emerson,Lake & Palmer"
  INDEX 01 00:00:00
FILE "02 - Toccata (An Adaptation Of Ginastera's 1St Piano Concerto, 4th Movement).wav" WAVE
 TRACK 02 AUDIO
  TITLE "Toccata (An Adaptation Of Ginastera's 1St Piano Concerto, 4th Movement)"
  PERFORMER "Emerson,Lake & Palmer"
  INDEX 01 00:00:00
 TRACK 03 AUDIO
  TITLE "Still...You Turn Me On"
  PERFORMER "Emerson,Lake & Palmer"
  INDEX 00 07:21:26
FILE "03 - Still...You Turn Me On.wav" WAVE
  INDEX 01 00:00:00
FILE "04 - Benny The Bouncer.wav" WAVE
 TRACK 04 AUDIO
  TITLE "Benny The Bouncer"
  PERFORMER "Emerson,Lake & Palmer"
  INDEX 01 00:00:00
 TRACK 05 AUDIO
  TITLE "Karn Evil 9: 1st Impression - Part 1"
  PERFORMER "Emerson,Lake & Palmer"
  INDEX 00 02:19:20
FILE "05 - Karn Evil 9- 1st Impression - Part 1.wav" WAVE
  INDEX 01 00:00:00
FILE "06 - Karn Evil 9- 1st Impression - Part 2.wav" WAVE
 TRACK 06 AUDIO
  TITLE "Karn Evil 9: 1st Impression - Part 2"
  PERFORMER "Emerson,Lake & Palmer"
  INDEX 01 00:00:00
FILE "07 - Karn Evil 9- 2nd Impression.wav" WAVE
 TRACK 07 AUDIO
  TITLE "Karn Evil 9: 2nd Impression"
  PERFORMER "Emerson,Lake & Palmer"
  INDEX 01 00:00:00
FILE "08 - Karn Evil 9- 3rd Impression.wav" WAVE
 TRACK 08 AUDIO
  TITLE "Karn Evil 9: 3rd Impression"
  PERFORMER "Emerson,Lake & Palmer"
  INDEX 01 00:00:00
<!--/code--><!--/code_wrap-->
<!--/code_head--> <div class="c-body">
[CUETools log; Date: 25.06.2012 15:52:10; Version: 2.1.4]
[CTDB TOCID: zj55xCU_GrDShHOJyG6NdLiMY8Q-] found.
Track | CTDB Status
 1  | (4/4) Accurately ripped
 2  | (4/4) Accurately ripped
 3  | (4/4) Accurately ripped
 4  | (4/4) Accurately ripped
 5  | (4/4) Accurately ripped
 6  | (4/4) Accurately ripped
 7  | (4/4) Accurately ripped
 8  | (4/4) Accurately ripped
[AccurateRip ID: 000c0326-00528c94-610a8a08] found.
Track  [ CRC  |  V2  ] Status
 01   [9be8a3d3|fcffce5d] (33+06/39) Accurately ripped
 02   [777310ee|85800ba0] (33+06/39) Accurately ripped
 03   [5dc92293|08b414ac] (33+06/39) Accurately ripped
 04   [6f3e5cda|ee587dc7] (33+06/39) Accurately ripped
 05   [1bba5bd7|380d1281] (33+06/39) Accurately ripped
 06   [b46a6618|74db1faa] (33+06/39) Accurately ripped
 07   [e7e4d46d|f710594d] (33+06/39) Accurately ripped
 08   [cf14e5cf|a794aa45] (33+06/39) Accurately ripped
Offsetted by -18:
 01   [90746266] (00/39) No match (V2 was not tested)
 02   [e133f6f9] (00/39) No match (V2 was not tested)
 03   [3f23c91f] (00/39) No match (V2 was not tested)
 04   [88cbcaf2] (00/39) No match (V2 was not tested)
 05   [b5b3126c] (00/39) No match (V2 was not tested)
 06   [71e464cb] (00/39) No match (V2 was not tested)
 07   [468443c3] (00/39) No match (V2 was not tested)
 08   [45e93fbf] (00/39) No match (V2 was not tested)

Track Peak [ CRC32 ] [W/O NULL] [ LOG  ]
 --  98,8 [2BA76AB1] [57975A18]
 01  98,8 [659C02A1] [0209E81A]  CRC32
 02  98,8 [07F3C6B1] [A0B1AE2E]  CRC32
 03  98,8 [FDF51D08] [7378ED4F]  CRC32
 04  98,8 [53545AEA] [E49E7F6A]  CRC32
 05  98,8 [7A0FA834] [45C49D31]  CRC32
 06  98,8 [70C404BC] [9B95DF54]  CRC32
 07  98,8 [D6A3F36A] [888F6336]  CRC32
 08  98,8 [0E45DE05] [3A577C0C]  CRC32
<!--/code--><!--/code_wrap-->
<!--/code_head--> <div class="c-body">
[CUETools log; Date: 25.06.2012 15:50:13; Version: 2.1.4]
[CTDB TOCID: xo6ZAxs8dVsgzFmkmQ3Osd661M4-] found.
Track | CTDB Status
 1  | (5/5) Accurately ripped
 2  | (5/5) Accurately ripped
 3  | (5/5) Accurately ripped
 4  | (5/5) Accurately ripped
 5  | (5/5) Accurately ripped
 6  | (5/5) Accurately ripped
 7  | (5/5) Accurately ripped
 8  | (5/5) Accurately ripped
 9  | (5/5) Accurately ripped
 10  | (5/5) Accurately ripped
 11  | (5/5) Accurately ripped
 12  | (5/5) Accurately ripped
[AccurateRip ID: 001c6b24-010f127c-a70f350c] found.
Track  [ CRC  |  V2  ] Status
 01   [0689c93b|fcff7b50] (33+06/41) Accurately ripped
 02   [dbb34bf3|8e2ef074] (33+06/41) Accurately ripped
 03   [4e8499bd|f46a5e76] (33+06/41) Accurately ripped
 04   [c6934224|0ee7648a] (34+06/42) Accurately ripped
 05   [e6e21bd3|a6801a1c] (34+06/42) Accurately ripped
 06   [11d56398|f63ae0a4] (33+06/41) Accurately ripped
 07   [6dfeebbe|82a81343] (33+06/41) Accurately ripped
 08   [cc9e518e|ab2cdd34] (34+06/42) Accurately ripped
 09   [13d7980a|b8088605] (34+06/42) Accurately ripped
 10   [c7df4174|45570090] (33+06/41) Accurately ripped
 11   [c995ade2|551f3078] (31+06/39) Accurately ripped
 12   [8af3d977|3371db5d] (32+06/40) Accurately ripped
Offsetted by -18:
 01   [06ccd163] (02/41) Accurately ripped
 02   [b9d081c9] (02/41) Accurately ripped
 03   [5ea5fb65] (02/41) Accurately ripped
 04   [40d6257f] (02/42) Accurately ripped
 05   [edd3f396] (02/42) Accurately ripped
 06   [b07b8ac1] (02/41) Accurately ripped
 07   [564eff92] (02/41) Accurately ripped
 08   [5c4e45d7] (02/42) Accurately ripped
 09   [54d41d13] (02/42) Accurately ripped
 10   [81d7e14d] (02/41) Accurately ripped
 11   [5fc43598] (02/39) Accurately ripped
 12   [5a625a6d] (02/40) Accurately ripped

Track Peak [ CRC32 ] [W/O NULL] [ LOG  ]
 --  98,8 [A50FFCBD] [3BFE160B]
 01  98,8 [FA3D1903] [4511CCD4]  CRC32
 02  98,8 [F99AFE11] [EB489EAA]  CRC32
 03  98,8 [82F9BD09] [D954E37D]  CRC32
 04  98,8 [027AB0A7] [C03D4DFC]  CRC32
 05  98,8 [7E6E5B06] [B8BFA4E6]  CRC32
 06  98,8 [C6416AE7] [B6CFA1C5]  CRC32
 07  98,8 [C9203622] [909AAA1B]  CRC32
 08  98,8 [9FB7B0A5] [5D8D7166]  CRC32
 09  98,8 [573615F3] [AE17C769]  CRC32
 10  98,8 [2994343E] [2A0218D0]  CRC32
 11  98,8 [86B47973] [E6F12D8C]  CRC32
 12  98,8 [D5933DB4] [97720D3C]  CRC32
<!--/code--><!--/code_wrap-->
<!--/code_head--> <div class="c-body">
[CUETools log; Date: 25.06.2012 15:47:11; Version: 2.1.4]
[CTDB TOCID: 9ERnDnUVKKUdAzv5Z4Zwez0EXUM-] found.
Track | CTDB Status
 1  | (5/5) Accurately ripped
 2  | (5/5) Accurately ripped
 3  | (5/5) Accurately ripped
 4  | (5/5) Accurately ripped
 5  | (5/5) Accurately ripped
 6  | (5/5) Accurately ripped
 7  | (5/5) Accurately ripped
 8  | (5/5) Accurately ripped
[AccurateRip ID: 000c0348-00528d0c-620a8a08] found.
Track  [ CRC  |  V2  ] Status
 01   [5b7c3685|1aaab743] (22+02/24) Accurately ripped
 02   [9d439584|114cea3a] (21+02/23) Accurately ripped
 03   [0448130a|a6a36d34] (21+02/23) Accurately ripped
 04   [c1fa955a|7289cf77] (21+02/23) Accurately ripped
 05   [bec20a77|7093b3d4] (21+02/23) Accurately ripped
 06   [ea3f121f|0efb5717] (22+02/24) Accurately ripped
 07   [bca5e966|f33c0e97] (21+02/23) Accurately ripped
 08   [b72c78ca|1ed768b0] (22+02/24) Accurately ripped

Track Peak [ CRC32 ] [W/O NULL] [ LOG  ]
 --  97,5 [8904C5E6] [F800EAAC]
 01  97,5 [23E1345D] [5C83F4DD]  CRC32
 02  95,4 [AA314605] [AEC41947]  CRC32
 03  93,2 [E62E2DBB] [E27BF568]  CRC32
 04  93,9 [17C2A2C6] [AB07DADC]  CRC32
 05  94,1 [02423E56] [932C84C2]  CRC32
 06  94,0 [8B5EBD78] [34CD08A9]  CRC32
 07  93,4 [74F1C9DE] [A34A8E84]  CRC32
 08  94,0 [513D1FBA] [D8A9FA38]  CRC32
<!--/code--><!--/code_wrap-->


Трекер:  [ 26-Июн-2012 18:28 ]

  

Скачать .torrent

Размер .torrent файла 86 KB


Размер: 1020 MB
Хэш (hash) релиза: ba0cb1a8e85ad35d1131da3bf6fab8176d0dfd06

Еще никто не оставлял запись к записи скачать торрент Emerson, Lake & Palmer - Brain Salad Surgery . Будь первым!

!Обратная связь