Скачать через торрент музыку Wetton Downes - Icon II - Rubicon - 2006 бесплатно без регистрации torrent

Если у вас наблюдаются проблемы со скриншотами, переходом по ссылками, скачиванием торрентов - проблемы в блокировщике рекламы AdBlock. #хорошегоДня!


Статистика раздачи
Размер:  361 MB   |    Зарегистрирован:  5 лет 1 месяц   |    .torrent скачан:  11 раз   |   
Раздают:  1  
   
Загрузка...
 
Автор Сообщение

_N_

avatar _N_


Wetton Downes / Icon II - Rubicon

Жанр: Progressive Rock
Страна-производитель диска: UK
Год издания: 2006 (2008)
Издатель (лейбл): The Store For Music
Номер по каталогу: SFMCD082
Страна: UK
Аудиокодек: FLAC (*.flac)
Тип рипа: image+.cue
Битрейт аудио: lossless
Продолжительность: 43:58.28
Источник (релизер): Собственная коллекция
Наличие сканов в содержимом раздачи: да
Треклист:
1. The Die Is Cast
2. Finger On The Trigger
3. Reflections (Of My Life)
4. To Catch A Thief
5. Tears Of Joy
6. Shannon
7. The Hanging Tree
8. The Glory Of Winning
9. Whirlpool
10. Rubicon
  
Exact Audio Copy V1.0 beta 3 from 29. August 2011

Отчёт EAC об извлечении, выполненном 25. июня 2012, 21:28

Wetton Downes / Icon II - Rubicon

Дисковод: Optiarc DVD RW AD-7690H Adapter: 4 ID: 0

Режим чтения : ДостоверностьИспользование точного потока : ДаОтключение кэша аудио : ДаИспользование указателей C2 : Нет

Коррекция смещения при чтении : 48Способность читать области Lead-in и Lead-out : НетЗаполнение пропущенных сэмплов тишиной : ДаУдаление блоков с тишиной в начале и конце : НетПри вычислениях CRC использовались нулевые сэмплы : ДаИнтерфейс : Встроенный Win32-интерфейс для Win NT/2000

Выходной формат : Пользовательский кодировщикВыбранный битрейт : 1024 kBit/sКачество : ВысокийДобавление ID3-тега : НетУтилита сжатия : C:\Program Files (x86)\Exact Audio Copy\Flac\flac.exeДополнительные параметры : -V -8 -T "Date=%year%" -T "Genre=%genre%" %source%

TOC извлечённого CD

Трек | Старт | Длительность | Начальный сектор | Конечный сектор --------------------------------------------------------------------- 1 | 0:00.00 | 6:14.66 | 0 | 28115 2 | 6:14.66 | 3:59.56 | 28116 | 46096 3 | 10:14.47 | 4:56.44 | 46097 | 68340 4 | 15:11.16 | 5:36.09 | 68341 | 93549 5 | 20:47.25 | 4:49.24 | 93550 | 115248 6 | 25:36.49 | 4:24.23 | 115249 | 135071 7 | 30:00.72 | 4:17.47 | 135072 | 154393 8 | 34:18.44 | 4:11.65 | 154394 | 173283 9 | 38:30.34 | 5:27.69 | 173284 | 197877 10 | 43:58.28 | 6:12.53 | 197878 | 225830

Характеристики диапазона извлечения и сообщения об ошибках

Выбранный диапазон

Имя файла C:\Users\Толик\Desktop\Новая папка (2)\Wetton Downes - Icon II - Rubicon.wav

Пиковый уровень 99.8 % Скорость извлечения 4.7 X Качество диапазона 100.0 % CRC теста 3CA3A29B CRC копии 3CA3A29B Копирование... OK

Ошибок не произошло

AccurateRip: сводка

Трек 1 отсутствует в базе данныхТрек 2 отсутствует в базе данныхТрек 3 отсутствует в базе данныхТрек 4 отсутствует в базе данныхТрек 5 отсутствует в базе данныхТрек 6 отсутствует в базе данныхТрек 7 отсутствует в базе данныхТрек 8 отсутствует в базе данныхТрек 9 отсутствует в базе данныхТрек 10 отсутствует в базе данных

Ни одного трека нет в базе AccurateRip

Конец отчёта

==== Контрольная сумма отчёта 6336F7408E7FE398CFA425195A17B6F13559B19CE91235A079E52974A68582DB ====
  
REM GENRE "Progressive Rock"REM DATE 2008REM DISCID 740BC30AREM COMMENT "ExactAudioCopy v1.0b3"CATALOG 0700000174003PERFORMER "Wetton Downes"TITLE "Icon II - Rubicon"FILE "Wetton Downes - Icon II - Rubicon.flac" WAVE TRACK 01 AUDIO TITLE "The Die Is Cast" PERFORMER "Wetton Downes" ISRC GBHQK0800602 INDEX 01 00:00:00 TRACK 02 AUDIO TITLE "Finger On The Trigger" PERFORMER "Wetton Downes" ISRC GBHQK0800603 INDEX 00 06:12:66 INDEX 01 06:14:66 TRACK 03 AUDIO TITLE "Reflections (Of My Life)" PERFORMER "Wetton Downes" ISRC GBHQK0800604 INDEX 00 10:12:47 INDEX 01 10:14:47 TRACK 04 AUDIO TITLE "To Catch A Thief" PERFORMER "Wetton Downes" ISRC GBHQK0800605 INDEX 00 15:09:16 INDEX 01 15:11:16 TRACK 05 AUDIO TITLE "Tears Of Joy" PERFORMER "Wetton Downes" ISRC GBHQK0800606 INDEX 00 20:45:25 INDEX 01 20:47:25 TRACK 06 AUDIO TITLE "Shannon" PERFORMER "Wetton Downes" ISRC GBHQK0800607 INDEX 00 25:34:49 INDEX 01 25:36:49 TRACK 07 AUDIO TITLE "The Hanging Tree" PERFORMER "Wetton Downes" ISRC GBHQK0800608 INDEX 00 29:58:72 INDEX 01 30:00:72 TRACK 08 AUDIO TITLE "The Glory Of Winning" PERFORMER "Wetton Downes" ISRC GBHQK0800609 INDEX 00 34:16:44 INDEX 01 34:18:44 TRACK 09 AUDIO TITLE "Whirlpool" PERFORMER "Wetton Downes" ISRC GBHQK0800610 INDEX 00 38:28:34 INDEX 01 38:30:34 TRACK 10 AUDIO TITLE "Rubicon" PERFORMER "Wetton Downes" ISRC GBHQK0800611 INDEX 00 43:56:28 INDEX 01 43:58:28
Band:
John Wetton — vocal, bass
Geoffrey Downes — keyboards, vocal
John Mitchell — guitar
Steve Christey — drums
Hugh McDowell — cello


Трекер:  [ 27-Июн-2012 09:27 ]

  

Скачать .torrent

Размер .torrent файла 15 KB


Размер: 361 MB
Хэш (hash) релиза: 089cc9bf4422a28c8f3d0379a5d78bb31ca5e8bd

Еще никто не оставлял запись к записи скачать торрент Wetton Downes - Icon II - Rubicon - 2006 . Будь первым!

!Обратная связь