Скачать через торрент музыку Ken Hensley - Love & Other Mysteries - 2012, FLAC бесплатно без регистрации torrent

Если у вас наблюдаются проблемы со скриншотами, переходом по ссылками, скачиванием торрентов - проблемы в блокировщике рекламы AdBlock. #хорошегоДня!


Статистика раздачи
Размер:  240 MB   |    Зарегистрирован:  5 лет 1 месяц   |    .torrent скачан:  39 раз   |   
Раздают:  1  
   
Загрузка...
 
Автор Сообщение

_N_

avatar _N_


Ken Hensley / Love & Other Mysteries

Жанр: Melodic Rock
Страна-производитель диска: Пиратка
Год издания: 2012
Издатель (лейбл): Esoteric Antenna Records
Номер по каталогу: EANTCD 1005
Страна: United Kingdom
Аудиокодек: FLAC (*.flac)
Тип рипа: tracks+.cue
Битрейт аудио: lossless
Продолжительность: 38:13
Источник (релизер): мой рип
Наличие сканов в содержимом раздачи: да
Треклист:
01 (This) Bleeding Heart
02 Romance
03 (Please) Tell Me When
04 No Matter
05 Come To Me
06 This House
07 Walk Away
08 Eyes (The Girl In The Purple Dress)
09 Respiro Tu Amor
10 Little Guy
  
Exact Audio Copy V1.0 beta 3 from 29. August 2011

Отчёт EAC об извлечении, выполненном 25. июня 2012, 19:40

Ken Hensley / Love & Other Mysteries

Дисковод: HL-DT-STDVDRAM GH24NS50 Adapter: 3 ID: 1

Режим чтения : ДостоверностьИспользование точного потока : ДаОтключение кэша аудио : ДаИспользование указателей C2 : Нет

Коррекция смещения при чтении : 667Способность читать области Lead-in и Lead-out : НетЗаполнение пропущенных сэмплов тишиной : ДаУдаление блоков с тишиной в начале и конце : НетПри вычислениях CRC использовались нулевые сэмплы : ДаИнтерфейс : Встроенный Win32-интерфейс для Win NT/2000Обработка зазоров : Добавлено к предыдущему треку

Выходной формат : Пользовательский кодировщикВыбранный битрейт : 320 kBit/sКачество : ВысокийДобавление ID3-тега : НетУтилита сжатия : C:\Users\Alex\Desktop\EAC_1.0_beta_3_Portable_Multilingual\App\EAC\FLAC\flac.exeДополнительные параметры : -V -8 -T "Date=%year%" -T "Genre=%genre%" %source%

TOC извлечённого CD

Трек | Старт | Длительность | Начальный сектор | Конечный сектор --------------------------------------------------------------------- 1 | 0:00.00 | 4:47.30 | 0 | 21554 2 | 4:47.30 | 4:53.28 | 21555 | 43557 3 | 9:40.58 | 4:41.30 | 43558 | 64662 4 | 14:22.13 | 2:54.23 | 64663 | 77735 5 | 17:16.36 | 3:47.36 | 77736 | 94796 6 | 21:03.72 | 3:58.08 | 94797 | 112654 7 | 25:02.05 | 2:43.41 | 112655 | 124920 8 | 27:45.46 | 3:48.34 | 124921 | 142054 9 | 31:34.05 | 2:50.56 | 142055 | 154860 10 | 34:24.61 | 3:48.46 | 154861 | 172006

Трек 1

Имя файла C:\Users\Alex\Desktop\РИП\01 (This) Bleeding Heart.wav

Длина предзазора 0:00:02.00

Пиковый уровень 99.9 % Скорость извлечения 1.2 X Качество трека 100.0 % CRC теста B6F29CE4 CRC копии B6F29CE4 Трек не обнаружен в базе AccurateRip Копирование... OK

Трек 2

Имя файла C:\Users\Alex\Desktop\РИП\02 Romance.wav

Пиковый уровень 99.9 % Скорость извлечения 1.3 X Качество трека 100.0 % CRC теста AEFD3333 CRC копии AEFD3333 Трек не обнаружен в базе AccurateRip Копирование... OK

Трек 3

Имя файла C:\Users\Alex\Desktop\РИП\03 (Please) Tell Me When.wav

Пиковый уровень 99.9 % Скорость извлечения 1.4 X Качество трека 100.0 % CRC теста EA80EC51 CRC копии EA80EC51 Трек не обнаружен в базе AccurateRip Копирование... OK

Трек 4

Имя файла C:\Users\Alex\Desktop\РИП\04 No Matter.wav

Пиковый уровень 99.6 % Скорость извлечения 1.2 X Качество трека 99.9 % CRC теста 2FBF6546 CRC копии 2FBF6546 Трек не обнаружен в базе AccurateRip Копирование... OK

Трек 5

Имя файла C:\Users\Alex\Desktop\РИП\05 Come To Me.wav

Пиковый уровень 99.9 % Скорость извлечения 1.5 X Качество трека 100.0 % CRC теста AA5A86B7 CRC копии AA5A86B7 Трек не обнаружен в базе AccurateRip Копирование... OK

Трек 6

Имя файла C:\Users\Alex\Desktop\РИП\06 This House.wav

Пиковый уровень 99.8 % Скорость извлечения 1.6 X Качество трека 100.0 % CRC теста AB391FD2 CRC копии AB391FD2 Трек не обнаружен в базе AccurateRip Копирование... OK

Трек 7

Имя файла C:\Users\Alex\Desktop\РИП\07 Walk Away.wav

Пиковый уровень 99.9 % Скорость извлечения 1.6 X Качество трека 100.0 % CRC теста 367511B8 CRC копии 367511B8 Трек не обнаружен в базе AccurateRip Копирование... OK

Трек 8

Имя файла C:\Users\Alex\Desktop\РИП\08 Eyes (The Girl In The Purple Dress).wav

Пиковый уровень 99.9 % Скорость извлечения 1.8 X Качество трека 100.0 % CRC теста 03A0CF93 CRC копии 03A0CF93 Трек не обнаружен в базе AccurateRip Копирование... OK

Трек 9

Имя файла C:\Users\Alex\Desktop\РИП\09 Respiro Tu Amor.wav

Пиковый уровень 96.5 % Скорость извлечения 1.7 X Качество трека 100.0 % CRC теста 5FF44F97 CRC копии 5FF44F97 Трек не обнаружен в базе AccurateRip Копирование... OK

Трек 10

Имя файла C:\Users\Alex\Desktop\РИП\10 Little Guy.wav

Пиковый уровень 99.9 % Скорость извлечения 1.9 X Качество трека 100.0 % CRC теста D305E359 CRC копии D305E359 Трек не обнаружен в базе AccurateRip Копирование... OK

Ни одного трека нет в базе AccurateRip

Ошибок не произошло

Конец отчёта

==== Контрольная сумма отчёта 54F40D812827AF45D13BBA035F80907A53068D18D0C1C6CA45A47DF21A81B36D ====
  
REM GENRE BalladREM DATE 2012REM DISCID 9408F50AREM COMMENT "ExactAudioCopy v1.0b3"CATALOG 5013929470530PERFORMER "Ken Hensley"TITLE "Love & Other Mysteries"FILE "01 (This) Bleeding Heart.wav" WAVE TRACK 01 AUDIO TITLE "(This) Bleeding Heart" PERFORMER "Ken Hensley" ISRC GBBLY1200498 INDEX 01 00:00:00FILE "02 Romance.wav" WAVE TRACK 02 AUDIO TITLE "Romance" PERFORMER "Ken Hensley" ISRC GBBLY1200499 INDEX 01 00:00:00FILE "03 (Please) Tell Me When.wav" WAVE TRACK 03 AUDIO TITLE "(Please) Tell Me When" PERFORMER "Ken Hensley" ISRC GBBLY1200500 INDEX 01 00:00:00FILE "04 No Matter.wav" WAVE TRACK 04 AUDIO TITLE "No Matter" PERFORMER "Ken Hensley" ISRC GBBLY1200501 INDEX 01 00:00:00FILE "05 Come To Me.wav" WAVE TRACK 05 AUDIO TITLE "Come To Me" PERFORMER "Ken Hensley" ISRC GBBLY1200502 INDEX 01 00:00:00FILE "06 This House.wav" WAVE TRACK 06 AUDIO TITLE "This House" PERFORMER "Ken Hensley" ISRC GBBLY1200503 INDEX 01 00:00:00FILE "07 Walk Away.wav" WAVE TRACK 07 AUDIO TITLE "Walk Away" PERFORMER "Ken Hensley" ISRC GBBLY1200504 INDEX 01 00:00:00FILE "08 Eyes (The Girl In The Purple Dress).wav" WAVE TRACK 08 AUDIO TITLE "Eyes (The Girl In The Purple Dress)" PERFORMER "Ken Hensley" ISRC GBBLY1200505 INDEX 01 00:00:00FILE "09 Respiro Tu Amor.wav" WAVE TRACK 09 AUDIO TITLE "Respiro Tu Amor" PERFORMER "Ken Hensley" ISRC GBBLY1200506 INDEX 01 00:00:00FILE "10 Little Guy.wav" WAVE TRACK 10 AUDIO TITLE "Little Guy" PERFORMER "Ken Hensley" ISRC GBBLY1200507 INDEX 01 00:00:00
Glenn Hughes & Santra Salkova - lead vocals 2
Sarah Rope - lead vocals 3, backing vocals
Irenere Fornaciari - lead vocals 4, 10, backing vocals
Roberto Tiranti - lead vocals 4, 9, 10, backing vocals
Claudia Flores - backing vocals
Pau Schafer - pianos & accordion
Juan Carlos Garcia - drums
Antonio Fidel - bass guitars
Ovido Lopez - principal guitars
Dani Saiz - more stuff, backing vocals

Armando Garcia, Herbert Perez Jones, Lesste Meija Ercia, Romany Cana Flores, Patxi Urchegui - strings
Matt Dela Pola - string arrangements
Paco Garcia - classical guitar
Angel Diaz - percussion


Трекер:  [ 27-Июн-2012 09:28 ]

  

Скачать .torrent

Размер .torrent файла 20 KB


Размер: 240 MB
Хэш (hash) релиза: 38c3d91f7ddc6c66c0b52c2fcc2543f55dcdab14

Еще никто не оставлял запись к записи скачать торрент Ken Hensley - Love & Other Mysteries - 2012, FLAC . Будь первым!

!Обратная связь