Скачать через торрент музыку Wayland - Wayland - 2010, Welcome to My Head бесплатно без регистрации torrent

Если у вас наблюдаются проблемы со скриншотами, переходом по ссылками, скачиванием торрентов - проблемы в блокировщике рекламы AdBlock. #хорошегоДня!


Статистика раздачи
Размер:  387 MB   |    Зарегистрирован:  5 лет 4 месяца   |    .torrent скачан:  30 раз   |   
Раздают:  1  
   
Загрузка...
 
Автор Сообщение

Umakiro

avatar Umakiro


Wayland / Wayland - 2010, Welcome to My Head (EP) - 2011
Жанр: Melodic Hard Rock|
Год издания: 2010, 2011|
Страна: USA
|Аудиокодек: FLAC (*.flac)|
Тип рипа: tracks+.cue|
Битрейт аудио: lossless|
Продолжительность: 00:53:43|
Источник (релизер): what.cd (Xioxyde)|
Наличие сканов в содержимом раздачи: нет
Треклист:
Трэклист:

01. Reason To Love (4:08)
02. That's Life (3:57)
03. Let You Down (3:40)
04. She Lights It Up (4:29)
05. Dirty Angelina (2:56)
06. Shine (3:09)
07. Wrong With You (3:08)
08. Down On Me (4:02)
09. Suddenly (3:43)
10. Shopping For A Savior (2:55)
11. When She Rains (3:58)
  
Exact Audio Copy V1.0 beta 1 from 15. November 2010

EAC extraction logfile from 11. April 2011, 23:05

Wayland / Wayland

Used drive : ASUS DRW-24B1ST Adapter: 2 ID: 1

Read mode : SecureUtilize accurate stream : YesDefeat audio cache : YesMake use of C2 pointers : No

Read offset correction : 6Overread into Lead-In and Lead-Out : NoFill up missing offset samples with silence : YesDelete leading and trailing silent blocks : NoNull samples used in CRC calculations : YesUsed interface : Native Win32 interface for Win NT & 2000Gap handling : Appended to previous track

Used output format : User Defined EncoderSelected bitrate : 320 kBit/sQuality : HighAdd ID3 tag : NoCommand line compressor : D:\Program Files (x86)\Exact Audio Copy\FLAC\FLAC.EXEAdditional command line options : -V -8 -T "artist=%a" -T "title=%t" -T "album=%g" -T "date=%y" -T "tracknumber=%n" -T "genre=%m" %s

TOC of the extracted CD

Track | Start | Length | Start sector | End sector --------------------------------------------------------- 1 | 0:00.00 | 4:07.44 | 0 | 18568 2 | 4:07.44 | 3:57.09 | 18569 | 36352 3 | 8:04.53 | 3:40.28 | 36353 | 52880 4 | 11:45.06 | 4:28.49 | 52881 | 73029 5 | 16:13.55 | 2:55.56 | 73030 | 86210 6 | 19:09.36 | 3:08.48 | 86211 | 100358 7 | 22:18.09 | 3:08.17 | 100359 | 114475 8 | 25:26.26 | 4:01.53 | 114476 | 132603 9 | 29:28.04 | 3:42.73 | 132604 | 149326 10 | 33:11.02 | 2:55.31 | 149327 | 162482 11 | 36:06.33 | 3:58.03 | 162483 | 180335

Track 1

Filename D:\Rips\Wayland - - Wayland\01 - Reason To Love.wav

Pre-gap length 0:00:02.00

Peak level 96.6 % Extraction speed 1.9 X Track quality 100.0 % Test CRC 65F0E365 Copy CRC 65F0E365 Track not present in AccurateRip database Copy OK

Track 2

Filename D:\Rips\Wayland - - Wayland\02 - That's Life.wav

Peak level 96.6 % Extraction speed 2.1 X Track quality 100.0 % Test CRC 6F1FC1FF Copy CRC 6F1FC1FF Track not present in AccurateRip database Copy OK

Track 3

Filename D:\Rips\Wayland - - Wayland\03 - Let You Down.wav

Peak level 96.6 % Extraction speed 2.3 X Track quality 100.0 % Test CRC 1F5F4182 Copy CRC 1F5F4182 Track not present in AccurateRip database Copy OK

Track 4

Filename D:\Rips\Wayland - - Wayland\04 - She Lights It Up.wav

Peak level 96.6 % Extraction speed 1.7 X Track quality 99.9 % Test CRC F06A2077 Copy CRC F06A2077 Track not present in AccurateRip database Copy OK

Track 5

Filename D:\Rips\Wayland - - Wayland\05 - Dirty Angelina.wav

Peak level 96.6 % Extraction speed 2.5 X Track quality 100.0 % Test CRC 681F5F8E Copy CRC 681F5F8E Track not present in AccurateRip database Copy OK

Track 6

Filename D:\Rips\Wayland - - Wayland\06 - Shine.wav

Peak level 96.6 % Extraction speed 1.1 X Track quality 99.9 % Test CRC 5772FB2E Copy CRC 5772FB2E Track not present in AccurateRip database Copy OK

Track 7

Filename D:\Rips\Wayland - - Wayland\07 - Wrong With You.wav

Peak level 90.2 % Extraction speed 2.8 X Track quality 100.0 % Test CRC 9614F63A Copy CRC 9614F63A Track not present in AccurateRip database Copy OK

Track 8

Filename D:\Rips\Wayland - - Wayland\08 - Down On Me.wav

Peak level 96.6 % Extraction speed 3.0 X Track quality 100.0 % Test CRC 2AC2E7DB Copy CRC 2AC2E7DB Track not present in AccurateRip database Copy OK

Track 9

Filename D:\Rips\Wayland - - Wayland\09 - Suddenly.wav

Peak level 96.6 % Extraction speed 3.1 X Track quality 100.0 % Test CRC F1518C5F Copy CRC F1518C5F Track not present in AccurateRip database Copy OK

Track 10

Filename D:\Rips\Wayland - - Wayland\10 - Shopping For A Savior.wav

Peak level 96.6 % Extraction speed 3.0 X Track quality 100.0 % Test CRC E804FA06 Copy CRC E804FA06 Track not present in AccurateRip database Copy OK

Track 11

Filename D:\Rips\Wayland - - Wayland\11 - When She Rains.wav

Peak level 96.4 % Extraction speed 3.3 X Track quality 100.0 % Test CRC 6BDD6BFB Copy CRC 6BDD6BFB Track not present in AccurateRip database Copy OK

None of the tracks are present in the AccurateRip database

No errors occurred

End of status report
  
REM DISCID 9C09640BREM COMMENT "ExactAudioCopy v1.0b1"REM GENREREM DATE 2010PERFORMER "Wayland"TITLE "Wayland"FILE "01 - Reason To Love.flac" WAVE TRACK 01 AUDIO TITLE "Reason To Love" INDEX 01 00:00:00FILE "02 - That's Life.flac" WAVE TRACK 02 AUDIO TITLE "That's Life" INDEX 01 00:00:00FILE "03 - Let You Down.flac" WAVE TRACK 03 AUDIO TITLE "Let You Down" INDEX 01 00:00:00FILE "04 - She Lights It Up.flac" WAVE TRACK 04 AUDIO TITLE "She Lights It Up" INDEX 01 00:00:00FILE "05 - Dirty Angelina.flac" WAVE TRACK 05 AUDIO TITLE "Dirty Angelina" INDEX 01 00:00:00FILE "06 - Shine.flac" WAVE TRACK 06 AUDIO TITLE "Shine" INDEX 01 00:00:00FILE "07 - Wrong With You.flac" WAVE TRACK 07 AUDIO TITLE "Wrong With You" INDEX 01 00:00:00FILE "08 - Down On Me.flac" WAVE TRACK 08 AUDIO TITLE "Down On Me" INDEX 01 00:00:00FILE "09 - Suddenly.flac" WAVE TRACK 09 AUDIO TITLE "Suddenly" INDEX 01 00:00:00FILE "10 - Shopping For A Savior.flac" WAVE TRACK 10 AUDIO TITLE "Shopping For A Savior" INDEX 01 00:00:00FILE "11 - When She Rains.flac" WAVE TRACK 11 AUDIO TITLE "When She Rains" INDEX 01 00:00:00
  
-----------------------

DON'T MODIFY THIS FILE

-----------------------

PERFORMER: auCDtect Task Manager, ver. 1.5.1RC6 build 1.5.1.7Copyright (c) 2008-2010 y-soft. All rights reservedhttp://y-soft.org

ANALYZER: auCDtect: CD records authenticity detector, version 0.8.2Copyright (c) 2004 Oleg Berngardt. All rights reserved.Copyright (c) 2004 Alexander Djourik. All rights reserved.

FILE: 11 - When She Rains.flac Size: 28154219 Hash: EFE90BE36ACB1A0CAE4ACE0196E158FE Accuracy: -m0 Conclusion: CDDA 100% Signature: 298739D0453EFA7D8774571EBC00AD5594FC439CFILE: 10 - Shopping For A Savior.flac Size: 22703532 Hash: CEBA6BE9C641B6FC13ECFB35D3C766DB Accuracy: -m0 Conclusion: CDDA 100% Signature: CDC3B2BB55F3D3D0E32574F55557DA7A67A4F7A2FILE: 09 - Suddenly.flac Size: 28658580 Hash: D3FC0F855BDF3988F9BB377BF76D23E3 Accuracy: -m0 Conclusion: CDDA 100% Signature: B92EA695F49B9C72139791A93CA4136BDC5A075FFILE: 08 - Down On Me.flac Size: 28734417 Hash: 2FE3907D7A6F8C5CA0AAF2080DDF7A24 Accuracy: -m0 Conclusion: CDDA 100% Signature: 3F5E4AF17A1BDC9A16EECC4E5662DCEE764B8CFCFILE: 07 - Wrong With You.flac Size: 25348748 Hash: 4F8B0AC2376F394512CA8836417D2091 Accuracy: -m0 Conclusion: CDDA 100% Signature: 76ECC01DC28CC7D983F285D5A8F7A4219BD7EB5CFILE: 06 - Shine.flac Size: 24722567 Hash: C3E75AC1DD8E2035137D10B1C6EBE16E Accuracy: -m0 Conclusion: CDDA 100% Signature: 6B6CD01A8FD4FFB7D50C383545E8DF7DCDEC589EFILE: 05 - Dirty Angelina.flac Size: 22817230 Hash: D2CE04CCBE45C75AA563109436465F64 Accuracy: -m0 Conclusion: CDDA 100% Signature: 290E3A24B50C028C082749625BFBE161D7847942FILE: 04 - She Lights It Up.flac Size: 31809550 Hash: 8EDE10A526E4D67B7CD2BC84E60158CF Accuracy: -m0 Conclusion: CDDA 99% Signature: 31DE41298B50E916049F54219F2D003473FE4864FILE: 03 - Let You Down.flac Size: 28561282 Hash: ECE8E7B88C2B7C55EEA022937BBCD988 Accuracy: -m0 Conclusion: CDDA 100% Signature: F958C8C115B2B445CCE0245C8DE5800624EE2C3AFILE: 02 - That's Life.flac Size: 30204748 Hash: 3BFB4DBC889333AE4AAB162D5D201CB1 Accuracy: -m0 Conclusion: CDDA 100% Signature: 9874B14739DFDF2284D6A757DDC74F436E33CC40FILE: 01 - Reason To Love.flac Size: 31161448 Hash: 38DE165824DC83E4A9256906932F5823 Accuracy: -m0 Conclusion: CDDA 100% Signature: F242ECC837AD1B93A7AE229561C588AC2CC685F6
Продолжительность: 00:40:04
Трэклист:

01. Nobody's Perfect (3:41)
02. Welcome to my Head (3:06)
03. On My Knees (4:00)
04. Fire Down Below (2:52)
  
Exact Audio Copy V1.0 beta 1 from 15. November 2010

EAC extraction logfile from 25. December 2011, 2:23

Wayland / Welcome to My Head

Used drive : ASUS DRW-24B1ST Adapter: 2 ID: 1

Read mode : SecureUtilize accurate stream : YesDefeat audio cache : YesMake use of C2 pointers : No

Read offset correction : 6Overread into Lead-In and Lead-Out : NoFill up missing offset samples with silence : YesDelete leading and trailing silent blocks : NoNull samples used in CRC calculations : YesUsed interface : Native Win32 interface for Win NT & 2000Gap handling : Appended to previous track

Used output format : User Defined EncoderSelected bitrate : 320 kBit/sQuality : HighAdd ID3 tag : NoCommand line compressor : D:\Program Files (x86)\Exact Audio Copy\FLAC\FLAC.EXEAdditional command line options : -V -8 -T "artist=%a" -T "title=%t" -T "album=%g" -T "date=%y" -T "tracknumber=%n" -T "genre=%m" %s

TOC of the extracted CD

Track | Start | Length | Start sector | End sector --------------------------------------------------------- 1 | 0:00.00 | 3:41.11 | 0 | 16585 2 | 3:41.11 | 3:05.58 | 16586 | 30518 3 | 6:46.69 | 3:59.44 | 30519 | 48487 4 | 10:46.38 | 2:52.12 | 48488 | 61399

Track 1

Filename D:\Rips\Wayland - 2011 - Welcome to My Head\01 - Nobody's Perfect.wav

Pre-gap length 0:00:02.00

Peak level 97.7 % Extraction speed 1.4 X Track quality 99.9 % Test CRC 9033D844 Copy CRC 9033D844 Track not present in AccurateRip database Copy OK

Track 2

Filename D:\Rips\Wayland - 2011 - Welcome to My Head\02 - Welcome to my Head.wav

Peak level 97.7 % Extraction speed 2.1 X Track quality 100.0 % Test CRC 8AB0EA56 Copy CRC 8AB0EA56 Track not present in AccurateRip database Copy OK

Track 3

Filename D:\Rips\Wayland - 2011 - Welcome to My Head\03 - On My Knees.wav

Peak level 100.0 % Extraction speed 2.3 X Track quality 100.0 % Test CRC AED70924 Copy CRC AED70924 Track not present in AccurateRip database Copy OK

Track 4

Filename D:\Rips\Wayland - 2011 - Welcome to My Head\04 - Fire Down Below.wav

Peak level 100.0 % Extraction speed 2.4 X Track quality 100.0 % Test CRC 93FC7EA6 Copy CRC 93FC7EA6 Track not present in AccurateRip database Copy OK

None of the tracks are present in the AccurateRip database

No errors occurred

End of status report

------------------------------------------------------------

Exact Audio Copy V1.0 beta 1 from 15. November 2010

EAC extraction logfile from 25. December 2011, 2:41

Wayland / Welcome to My Head

Used drive : ASUS DRW-24B1ST Adapter: 2 ID: 1

Read mode : SecureUtilize accurate stream : YesDefeat audio cache : YesMake use of C2 pointers : No

Read offset correction : 6Overread into Lead-In and Lead-Out : NoFill up missing offset samples with silence : YesDelete leading and trailing silent blocks : NoNull samples used in CRC calculations : YesUsed interface : Native Win32 interface for Win NT & 2000Gap handling : Appended to previous track

Used output format : Internal WAV RoutinesSample format : 44.100 Hz; 16 Bit; Stereo

TOC of the extracted CD

Track | Start | Length | Start sector | End sector --------------------------------------------------------- 1 | 0:00.00 | 3:41.11 | 0 | 16585 2 | 3:41.11 | 3:05.58 | 16586 | 30518 3 | 6:46.69 | 3:59.44 | 30519 | 48487 4 | 10:46.38 | 2:52.12 | 48488 | 61399

Track 1

Filename D:\Rips\Wayland - 2011 - Welcome to My Head\01 - Nobody's Perfect.wav

Pre-gap length 0:00:02.00

Peak level 97.7 % Extraction speed 1.4 X Track quality 99.9 % Test CRC 9033D844 Copy CRC 9033D844 Track not present in AccurateRip database Copy OK

Track 2

Filename D:\Rips\Wayland - 2011 - Welcome to My Head\02 - Welcome to my Head.wav

Peak level 97.7 % Extraction speed 2.1 X Track quality 100.0 % Test CRC 8AB0EA56 Copy CRC 8AB0EA56 Track not present in AccurateRip database Copy OK

Track 3

Filename D:\Rips\Wayland - 2011 - Welcome to My Head\03 - On My Knees.wav

Peak level 100.0 % Extraction speed 2.3 X Track quality 100.0 % Test CRC AED70924 Copy CRC AED70924 Track not present in AccurateRip database Copy OK

Track 4

Filename D:\Rips\Wayland - 2011 - Welcome to My Head\04 - Fire Down Below.wav

Peak level 100.0 % Extraction speed 2.4 X Track quality 100.0 % Test CRC 93FC7EA6 Copy CRC 93FC7EA6 Track not present in AccurateRip database Copy OK

None of the tracks are present in the AccurateRip database

No errors occurred

End of status report
  
REM GENRE RockREM DATE 2011PERFORMER "Wayland"TITLE "Welcome to My Head"FILE "01 - Nobody's Perfect.flac" WAVE TRACK 01 AUDIO TITLE "Nobody's Perfect" INDEX 01 00:00:00FILE "02 - Welcome to my Head.flac" WAVE TRACK 02 AUDIO TITLE "Welcome to my Head" INDEX 01 00:00:00FILE "03 - On My Knees.flac" WAVE TRACK 03 AUDIO TITLE "On My Knees" INDEX 01 00:00:00FILE "04 - Fire Down Below.flac" WAVE TRACK 04 AUDIO TITLE "Fire Down Below" INDEX 01 00:00:00
  
-----------------------

DON'T MODIFY THIS FILE

-----------------------

PERFORMER: auCDtect Task Manager, ver. 1.5.1RC6 build 1.5.1.7Copyright (c) 2008-2010 y-soft. All rights reservedhttp://y-soft.org

ANALYZER: auCDtect: CD records authenticity detector, version 0.8.2Copyright (c) 2004 Oleg Berngardt. All rights reserved.Copyright (c) 2004 Alexander Djourik. All rights reserved.

FILE: 04 - Fire Down Below.flac Size: 21595712 Hash: 2DE1F3716798C40255109B5C466CC083 Accuracy: -m0 Conclusion: CDDA 100% Signature: 45F4E745D9C4BA71038B07C4FAEBD90292F244ABFILE: 03 - On My Knees.flac Size: 28920969 Hash: 6DE319EC61AF32DA05ECB357A5289078 Accuracy: -m0 Conclusion: CDDA 100% Signature: E5BF1451A94847E6A37C72E1A8FA11EF68C824DEFILE: 02 - Welcome to my Head.flac Size: 24457711 Hash: F5C7D43B560AC063779B447FAA30C6C7 Accuracy: -m0 Conclusion: CDDA 100% Signature: 0071C713C4AB7FC436A8FED0128FFA49DD275F42FILE: 01 - Nobody's Perfect.flac Size: 27351090 Hash: CD3C0064B2DC7CA66CC95A283B713C4E Accuracy: -m0 Conclusion: CDDA 100% Signature: FFC3EBF7DB4EC0958EA5B6948F549517D58CE13C
Продолжительность: 00:13:39
Группа Wayland, названная в честь родного города в штате Michigan, существует уже 6 лет, но засветилась на музыкальном олимпе только в 2010 году. Продюсируют сейчас банду Jude Cole (Lifehouse) и Jesse James Dupree (Jackyl, Full Throttle Saloon).
Участники: Mitch Arnold, Phillip Vilenski, Dean Pizzazz, Tyler Coburn.
Welcome to My Head


Трекер:  [ 25-Июн-2012 20:16 ]

  

Скачать .torrent

Размер .torrent файла 17 KB


Размер: 387 MB
Хэш (hash) релиза: 11ff10143da7f94aef0f61f500a9f2898f86d692

Торренты, похожие на Wayland - Wayland - 2010, Welcome to My Head скачать торрент

Форум Название Автор Размер S L Добавлен
Зарубежный Rock ·· (Hard Rock | Melodic Hard Rock) Wayland - Wayland (2010), Welcome To My Head (EP) (2011), MP3, 320 kbps Centner1 129312721123 MB 0 0 1340693760

09:56

26-Июн-12

Еще никто не оставлял запись к записи скачать торрент Wayland - Wayland - 2010, Welcome to My Head . Будь первым!

!Обратная связь