Скачать через торрент музыку Ragnarök бесплатно без регистрации torrent

Если у вас наблюдаются проблемы со скриншотами, переходом по ссылками, скачиванием торрентов - проблемы в блокировщике рекламы AdBlock. #хорошегоДня!


Статистика раздачи
Размер:  195 MB   |    Зарегистрирован:  5 лет 1 месяц   |    .torrent скачан:  21 раз   |   
Раздают:  1  
   
Загрузка...
 
Автор Сообщение

Umakiro

avatar Umakiro


Ragnarök / Fjärilar I Magen

Жанр: Prog Rock, Prog Folk
Страна-производитель диска: Japan
Год издания: 1979 (2011)
Издатель (лейбл): Arcàngelo
Номер по каталогу: ARC-3034
Страна: Sweden
Аудиокодек: FLAC (*.flac)
Тип рипа: tracks+.cue
Битрейт аудио: lossless
Продолжительность: 37:38
Источник (релизер): вата (kotetsu29292929)
Наличие сканов в содержимом раздачи: да
Треклист:
1. Adrenalin
2. Första Ön
3. Östen Är Röd
4. Var Glad Var Dag!
5. Blåmolnfolket
6. Brushanespele
7. Vattenytor
Adrenalin || Forsta On || Var Glad Var Dag || Osten ar Rod
|| ragnarokprogg || progarchives || discogs || progg || rateyourmusic ||
  
Exact Audio Copy V1.0 beta 3 from 29. August 2011

EAC extraction logfile from 3. June 2012, 0:11

Ragnarök / Fjärilar i magen

Used drive : ATAPI iHAS324 Y Adapter: 4 ID: 0

Read mode : SecureUtilize accurate stream : YesDefeat audio cache : YesMake use of C2 pointers : No

Read offset correction : 48Overread into Lead-In and Lead-Out : NoFill up missing offset samples with silence : YesDelete leading and trailing silent blocks : NoNull samples used in CRC calculations : YesUsed interface : Native Win32 interface for Win NT & 2000Gap handling : Appended to previous track

Used output format : User Defined EncoderSelected bitrate : 896 kBit/sQuality : HighAdd ID3 tag : NoCommand line compressor : C:\Program Files\Exact Audio Copy\flac.exeAdditional command line options : -8 -V -T "ARTIST=%artist%" -T "TITLE=%title%" -T "ALBUM=%albumtitle%" -T "DATE=%year%" -T "TRACKNUMBER=%tracknr%" -T "GENRE=%genre%" -T "PERFORMER=%albuminterpret%" -T "COMPOSER=%composer%" %haslyrics%--tag-from-file=LYRICS="%lyricsfile%"%haslyrics% -T "ALBUMARTIST=%albumartist%" -T "DISCNUMBER=%cdnumber%" -T "TOTALDISCS=%totalcds%" -T "TOTALTRACKS=%numtracks%" -T "COMMENT=%comment%" %source% -o %dest%

TOC of the extracted CD

Track | Start | Length | Start sector | End sector --------------------------------------------------------- 1 | 0:00.00 | 1:45.46 | 0 | 7920 2 | 1:45.46 | 6:22.14 | 7921 | 36584 3 | 8:07.60 | 5:36.29 | 36585 | 61813 4 | 13:44.14 | 4:04.68 | 61814 | 80181 5 | 17:49.07 | 8:21.38 | 80182 | 117794 6 | 26:10.45 | 2:21.68 | 117795 | 128437 7 | 28:32.38 | 9:05.14 | 128438 | 169326

Track 1

Filename C:\EAC\01 - Adrenalin.wav

Pre-gap length 0:00:02.00

Peak level 98.9 % Extraction speed 1.9 X Track quality 100.0 % Test CRC 374F181B Copy CRC 374F181B Track not present in AccurateRip database Copy OK

Track 2

Filename C:\EAC\02 - Första ön.wav

Peak level 97.0 % Extraction speed 2.6 X Track quality 100.0 % Test CRC C5F61565 Copy CRC C5F61565 Track not present in AccurateRip database Copy OK

Track 3

Filename C:\EAC\03 - Östen är röd.wav

Peak level 70.5 % Extraction speed 3.0 X Track quality 100.0 % Test CRC 92084358 Copy CRC 92084358 Track not present in AccurateRip database Copy OK

Track 4

Filename C:\EAC\04 - Var glad var dag!.wav

Peak level 98.3 % Extraction speed 3.1 X Track quality 100.0 % Test CRC 23F6A3EC Copy CRC 23F6A3EC Track not present in AccurateRip database Copy OK

Track 5

Filename C:\EAC\05 - Blåmolnfolket.wav

Peak level 98.8 % Extraction speed 3.6 X Track quality 100.0 % Test CRC 671E6DDF Copy CRC 671E6DDF Track not present in AccurateRip database Copy OK

Track 6

Filename C:\EAC\06 - Brushanespel.wav

Peak level 98.8 % Extraction speed 3.3 X Track quality 100.0 % Test CRC 72A13633 Copy CRC 72A13633 Track not present in AccurateRip database Copy OK

Track 7

Filename C:\EAC\07 - Vattenytor.wav

Peak level 99.7 % Extraction speed 4.2 X Track quality 100.0 % Test CRC 855EB632 Copy CRC 855EB632 Track not present in AccurateRip database Copy OK

None of the tracks are present in the AccurateRip database

No errors occurred

End of status report

==== Log checksum 7E3EC8C6F6449D63732DDA670902F4470A7140440BF010A20590F27EB9A5018C ====

------------------------------------------------------------

Exact Audio Copy V1.0 beta 3 from 29. August 2011

EAC extraction logfile from 3. June 2012, 0:11

Ragnarök / Fjärilar i magen

Used drive : ATAPI iHAS324 Y Adapter: 4 ID: 0

Read mode : SecureUtilize accurate stream : YesDefeat audio cache : YesMake use of C2 pointers : No

Read offset correction : 48Overread into Lead-In and Lead-Out : NoFill up missing offset samples with silence : YesDelete leading and trailing silent blocks : NoNull samples used in CRC calculations : YesUsed interface : Native Win32 interface for Win NT & 2000Gap handling : Appended to previous track

Used output format : User Defined EncoderSelected bitrate : 896 kBit/sQuality : HighAdd ID3 tag : NoCommand line compressor : C:\Program Files\Exact Audio Copy\flac.exeAdditional command line options : -8 -V -T "ARTIST=%artist%" -T "TITLE=%title%" -T "ALBUM=%albumtitle%" -T "DATE=%year%" -T "TRACKNUMBER=%tracknr%" -T "GENRE=%genre%" -T "PERFORMER=%albuminterpret%" -T "COMPOSER=%composer%" %haslyrics%--tag-from-file=LYRICS="%lyricsfile%"%haslyrics% -T "ALBUMARTIST=%albumartist%" -T "DISCNUMBER=%cdnumber%" -T "TOTALDISCS=%totalcds%" -T "TOTALTRACKS=%numtracks%" -T "COMMENT=%comment%" %source% -o %dest%

TOC of the extracted CD

Track | Start | Length | Start sector | End sector --------------------------------------------------------- 1 | 0:00.00 | 1:45.46 | 0 | 7920 2 | 1:45.46 | 6:22.14 | 7921 | 36584 3 | 8:07.60 | 5:36.29 | 36585 | 61813 4 | 13:44.14 | 4:04.68 | 61814 | 80181 5 | 17:49.07 | 8:21.38 | 80182 | 117794 6 | 26:10.45 | 2:21.68 | 117795 | 128437 7 | 28:32.38 | 9:05.14 | 128438 | 169326

Track 1

Filename C:\EAC\01 - Adrenalin.wav

Pre-gap length 0:00:02.00

Peak level 98.9 % Extraction speed 1.9 X Track quality 100.0 % Test CRC 374F181B Copy CRC 374F181B Track not present in AccurateRip database Copy OK

Track 2

Filename C:\EAC\02 - Första ön.wav

Peak level 97.0 % Extraction speed 2.6 X Track quality 100.0 % Test CRC C5F61565 Copy CRC C5F61565 Track not present in AccurateRip database Copy OK

Track 3

Filename C:\EAC\03 - Östen är röd.wav

Peak level 70.5 % Extraction speed 3.0 X Track quality 100.0 % Test CRC 92084358 Copy CRC 92084358 Track not present in AccurateRip database Copy OK

Track 4

Filename C:\EAC\04 - Var glad var dag!.wav

Peak level 98.3 % Extraction speed 3.1 X Track quality 100.0 % Test CRC 23F6A3EC Copy CRC 23F6A3EC Track not present in AccurateRip database Copy OK

Track 5

Filename C:\EAC\05 - Blåmolnfolket.wav

Peak level 98.8 % Extraction speed 3.6 X Track quality 100.0 % Test CRC 671E6DDF Copy CRC 671E6DDF Track not present in AccurateRip database Copy OK

Track 6

Filename C:\EAC\06 - Brushanespel.wav

Peak level 98.8 % Extraction speed 3.3 X Track quality 100.0 % Test CRC 72A13633 Copy CRC 72A13633 Track not present in AccurateRip database Copy OK

Track 7

Filename C:\EAC\07 - Vattenytor.wav

Peak level 99.7 % Extraction speed 4.2 X Track quality 100.0 % Test CRC 855EB632 Copy CRC 855EB632 Track not present in AccurateRip database Copy OK

None of the tracks are present in the AccurateRip database

No errors occurred

End of status report

==== Log checksum 7E3EC8C6F6449D63732DDA670902F4470A7140440BF010A20590F27EB9A5018C ====
  
REM GENRE "Progressive Rock"REM DATE 1979REM DISCID 5408D107REM COMMENT "ExactAudioCopy v1.0b3"PERFORMER "Ragnarok"TITLE "Fjarilar i magen"FILE "01 - Adrenalin.wav" WAVE TRACK 01 AUDIO TITLE "Adrenalin" PERFORMER "Ragnarok" ISRC SELFA1100301 INDEX 01 00:00:00FILE "02 - Forsta on.wav" WAVE TRACK 02 AUDIO TITLE "Forsta on" PERFORMER "Ragnarok" ISRC SELFA1100302 INDEX 01 00:00:00FILE "03 - Osten ar rod.wav" WAVE TRACK 03 AUDIO TITLE "Osten ar rod" PERFORMER "Ragnarok" ISRC SELFA1100303 INDEX 01 00:00:00FILE "04 - Var glad var dag!.wav" WAVE TRACK 04 AUDIO TITLE "Var glad var dag!" PERFORMER "Ragnarok" ISRC SELFA1100304 INDEX 01 00:00:00FILE "05 - Blamolnfolket.wav" WAVE TRACK 05 AUDIO TITLE "Blamolnfolket" PERFORMER "Ragnarok" ISRC SELFA1100305 INDEX 01 00:00:00FILE "06 - Brushanespel.wav" WAVE TRACK 06 AUDIO TITLE "Brushanespel" PERFORMER "Ragnarok" ISRC SELFA1100306 INDEX 01 00:00:00FILE "07 - Vattenytor.wav" WAVE TRACK 07 AUDIO TITLE "Vattenytor" PERFORMER "Ragnarok" ISRC SELFA1100307 INDEX 01 00:00:00
  
-----------------------

DON'T MODIFY THIS FILE

-----------------------

PERFORMER: auCDtect Task Manager, ver. 1.5.1RC4 build 1.5.1.5Copyright (c) 2008-2010 y-soft. All rights reservedhttp://y-soft.org

ANALYZER: auCDtect: CD records authenticity detector, version 0.8.2Copyright (c) 2004 Oleg Berngardt. All rights reserved.Copyright (c) 2004 Alexander Djourik. All rights reserved.

FILE: 04 - Var glad var dag!.flac Size: 27803222 Hash: 5C8F2422975BF18AB1224708A42AE561 Accuracy: -m0 Conclusion: CDDA 100% Signature: 5A6BAB2FC5CC426ED1B5CA8290824A4F91AC7E9BFILE: 03 - Osten ar rod.flac Size: 23800209 Hash: 2C115EC43103EF1FE69DA3E7BACCA31F Accuracy: -m0 Conclusion: CDDA 100% Signature: DBB0D76E81A040C1913595BB94314CA5F8193C10FILE: 02 - Forsta on.flac Size: 36021795 Hash: 89A26856BADC8FF17697B3CE52C5D145 Accuracy: -m0 Conclusion: CDDA 100% Signature: 4E406A2791697218C5A7E761CF316CCAB478CC0CFILE: 01 - Adrenalin.flac Size: 11604091 Hash: 2A9F78636052E5115E13B3A8AB26E700 Accuracy: -m0 Conclusion: CDDA 100% Signature: BD9B8B6854C697382198AB2C4F7845FA696BB36DFILE: 07 - Vattenytor.flac Size: 45522649 Hash: 7B3758834CF6DB5FF893631611C6CAB6 Accuracy: -m0 Conclusion: CDDA 99% Signature: 5EE0872D156B6AD85CAA564361DFF49D19122908FILE: 06 - Brushanespel.flac Size: 11819423 Hash: 4BC4437D7681B759B329AB826D0F7236 Accuracy: -m0 Conclusion: CDDA 100% Signature: 2B883B08FE38F3D0F792AA25501488EB8AEEE1BDFILE: 05 - Blamolnfolket.flac Size: 45448236 Hash: E5B9472FB46AED7CDC8C8C0484294F67 Accuracy: -m0 Conclusion: CDDA 100% Signature: 6B700826C57C8B40FE703AFB43C5646D2008DA0A

Ragnarök biography

Not to be confused with the New Zealand symphonic prog group from those very same years (that should belong in the site soon) or the Heavy Metal unit from the 80-90's, these Swedes managed four albums on Silence Record and some more (not listed here) in the early 90's. They are a typical example of atmospheric and melancholic prog like only Sweden can produce them. Their first album is a real classic known as a minor classic among progheads and they will participate to another group (KUNG TUNG - much harder) before doing their second album where those influences from that group will leave a mark. It is reputed to be as good as their debut. The later albums listed here remain of a good standard. Among the non-listed albums is "Well"(91) and is rather new age and sometimes industrial - not much to do with the earlier works.

-- Hugues Chantraine, BELGIUM --
/progarchives.com/
Ragnarök ‎– Fjärilar I Magen
3.43 | 13 ratings | 3 reviews | 15% 5 stars (Оценки на progarchives.com)
Дебютный альбом шведского коллектива, вышедший в 1977, стилистически был выдержан в русле мягкого инструментального фолк-арт-рока. Европейские меломаны приняли его весьма благожелательно, ожидая скорого продолжения. И оно последовало, однако лидер группы гитарист Peter Bryngelsson, судя по всему, не из тех, кто потакает публике. Не зацикливаясь на собственных звуковых достижениях прошлого, он отважился сотворить нечто оригинальное.
"Fjärilar I Magen" - альбом-сюрприз, открывающийся бескомпромиссной, почти doom-металлической "Adrenalin", напоминающей по манере Black Sabbath (!). Идущая за ней "Första Ön" - неторопливая пьеса с рефлексирующим пиано, тягучим басом, летящими гитарными проходами и разнокалиберной перкуссией. "Osten är Röd" - чистой воды спейс-рок, своего рода аудиоряд к невеселым размышлениям на вечные темы, сменяющийся энергетическим зарядом опять-таки минорного прогрессив-фьюжн ("Var glad var dag") в традициях Djam Karet. "Blamolnfolket" поначалу являет собой электроакустическое музицирование с вкраплениями духовых; во второй части композиции к делу подключается ритм-секция, несущая затаенную ярость, готовую в любой момент прорваться наружу. Однако мечтательные соло флейты сводят агрессивность на нет, и все возвращается к истокам. Короткий гитарный экзерсис "Brushanespel" с первых же аккордов отсылает к Pink Floyd середины 1970-х. Эдакий препарированный космический блюз-рок. Замыкает пластинку нью-эйджевая медитация "Vattenytor", придающая эклектичному содержимому альбома необходимую смысловую целостность.
Последующие творения Ragnarök "Fata Morgana" (1981) и "3 Signs" (1983) также отмечены печатью эксперимента, но в целом менее интересны. Покинув группу, гитарист/композитор Брюнгельссон создал психоделик-проговый проект Triangulus, а после его распада в 1990 переключился на сольную деятельность, изредка радуя поклонников новыми музыкальными полотнами.

Автор: Сергей 'Sagael' Уваров
/soundvoyager.blogspot.com/
- Peter Bryngelsson / guitars
- Peder Nabo / piano, flute, pecussion
- Dan Söderqvist / guitar
- Thomas Wiegert / drums, percussion
- Kjell Karlgren / sax



Трекер:  [ 25-Июн-2012 20:17 ]

  

Скачать .torrent

Размер .torrent файла 16 KB


Размер: 195 MB
Хэш (hash) релиза: 9baf715f5cd1784851f65a150115836c9dddc2de

Торренты, похожие на Ragnarök скачать торрент

Форум Название Автор Размер S L Добавлен
Rосk | Mеtаl | Аltеrnаtivе, Рunk, Indереndеnt (mр3) ·· (Melodic Death/Power Metal) Eterknight - Discography 2 EP: (Ragnarök; Winter's Calling) - 2014 - 2016, MP3, 320 kbps Galfimbul 9133126287 MB 0 0 1456341999

22:26

24-Фев-16

Rосk | Mеtаl | Аltеrnаtivе, Рunk, Indереndеnt (losslеss) ·· (Progressive Rock) Ragnarök (Ragnarok) - Live In Tokyo - 2012 (Dos Records DOS 004 Sweden), FLAC (tracks+.cue), lossless Galfimbul 274539586262 MB 0 0 1369839880

18:04

29-Май-13

Еще никто не оставлял запись к записи скачать торрент Ragnarök . Будь первым!

!Обратная связь