Скачать через торрент музыку Galahad - Battle Scars бесплатно без регистрации torrent

Если у вас наблюдаются проблемы со скриншотами, переходом по ссылками, скачиванием торрентов - проблемы в блокировщике рекламы AdBlock. #хорошегоДня!


Статистика раздачи
Размер:  410 MB   |    Зарегистрирован:  5 лет 1 месяц   |    .torrent скачан:  45 раз   |   
Раздают:  1  
   
Загрузка...
 
Автор Сообщение

Umakiro

avatar Umakiro


Galahad - Battle Scars

Жанр: Neo Progressive
Год выпуска диска: 2012
Страна: UK
Label: Avalon records
Catalog Nr.: GHCD10
Аудио кодек: FLAC
Тип рипа: image+.cue(test&copy)
Битрейт аудио: lossless
Продолжительность: 56:24
Источник: свой рип


Трэклист:

1. Battle Scars (7.04)
2. Reach For The Sun (3.54)
3. Singularity (7.32)
4. Bitter And Twisted (6.58)
5. Suspended Animation (4.05)
6. Beyond The Barbed Wire (5.30)
7. Seize The Day (8.34)
8. Sleepers 2012 (14.07) (bonus track)

Total Time 56:24

Музыканты

- Stuart Nicholson / vocals
- Roy Keyworth / guitars
- Spencer Luckman / drums
- Neil Pepper / bass, guitar & keyboards
- Dean Baker / keyboards

Об альбоме: На данный момент самый свежий релиз известнейших британских нео-проггеров. Пока вызывают много споров сравнения его с предыдущими двумя альбомами (какой лучше). Мне лично альбом очень понравился.
Слушайте и судите сами.
Exact Audio Copy V1.0 beta 3 from 29. August 2011

EAC extraction logfile from 24. June 2012, 12:08

Galahad / Battle Scars

Used drive : TEAC CD-W516EB Adapter: 0 ID: 0

Read mode : Secure
Utilize accurate stream : Yes
Defeat audio cache : Yes
Make use of C2 pointers : No

Read offset correction : 685
Overread into Lead-In and Lead-Out : No
Fill up missing offset samples with silence : Yes
Delete leading and trailing silent blocks : No
Null samples used in CRC calculations : Yes
Used interface : Native Win32 interface for Win NT & 2000

Used output format : User Defined Encoder
Selected bitrate : 1024 kBit/s
Quality : High
Add ID3 tag : Yes
Command line compressor : C:\Program Files (x86)\FLAC\flac.exe
Additional command line options : -6 -V -T "ARTIST=%artist%" -T "TITLE=%title%" -T "ALBUM=%albumtitle%" -T "DATE=%year%" -T "TRACKNUMBER=%tracknr%" -T "GENRE=%genre%" -T "COMMENT=%comment%" %source% -o %dest%

TOC of the extracted CD

Track | Start | Length | Start sector | End sector
---------------------------------------------------------
1 | 0:00.00 | 7:04.57 | 0 | 31856
2 | 7:04.57 | 3:55.34 | 31857 | 49515
3 | 11:00.16 | 7:30.02 | 49516 | 83267
4 | 18:30.18 | 6:57.71 | 83268 | 114613
5 | 25:28.14 | 4:04.40 | 114614 | 132953
6 | 29:32.54 | 5:29.09 | 132954 | 157637
7 | 35:01.63 | 8:32.53 | 157638 | 196090
8 | 43:34.41 | 14:07.50 | 196091 | 259665

Range status and errors

Selected range

Filename Y:\EAC\wurensh\Galahad\Galahad - Battle Scars.wav

Peak level 96.6 %
Extraction speed 7.1 X
Range quality 100.0 %
Test CRC 46B81C9D
Copy CRC 46B81C9D
Copy OK

No errors occurred

AccurateRip summary

Track 1 accurately ripped (confidence 2) [9EED40AF] (AR v2)
Track 2 accurately ripped (confidence 2) [D42FE6C6] (AR v2)
Track 3 accurately ripped (confidence 2) [B002EF94] (AR v2)
Track 4 accurately ripped (confidence 2) [65205DB6] (AR v2)
Track 5 accurately ripped (confidence 2) [7250212B] (AR v2)
Track 6 accurately ripped (confidence 2) [AB6835FD] (AR v2)
Track 7 accurately ripped (confidence 2) [1148E655] (AR v2)
Track 8 accurately ripped (confidence 2) [41A0CD1B] (AR v2)

All tracks accurately ripped

End of status report

---- CUETools DB Plugin V2.1.3

[CTDB TOCID: VUV2qOijMv0mrUk3bnoPFdgw294-] found, Submit result: VUV2qOijMv0mrUk3bnoPFdgw294- has been confirmed
[1e69f57c] (4/4) Accurately ripped
Коврики DigiPack 300dpi в комплекте.
Progarchives info

Трекер:  [ 25-Июн-2012 20:18 ]

  

Скачать .torrent

Размер .torrent файла 17 KB


Размер: 410 MB
Хэш (hash) релиза: 82c5772005efa6dfe4133ce23f881269692030fb

Торренты, похожие на Galahad - Battle Scars скачать торрент

Форум Название Автор Размер S L Добавлен
Rосk | Mеtаl | Аltеrnаtivе, Рunk, Indереndеnt (mр3) ·· (Neo-Prog) Galahad - Battle Scars (WEB) - 2012, MP3, 320 kbps Galfimbul 138815179132 MB 0 0 1335370980

19:23

25-Апр-12

Sapsan21

Спасибо!А кто в теме,скажите было у Галахад что-то после 2012 года?

Хотите добавить комментарий к записи скачать торрент Galahad - Battle Scars

!Обратная связь