Скачать через торрент музыку Mina - La banda - 2012, FLAC бесплатно без регистрации torrent

Если у вас наблюдаются проблемы со скриншотами, переходом по ссылками, скачиванием торрентов - проблемы в блокировщике рекламы AdBlock. #хорошегоДня!


Статистика раздачи
Размер:  220 MB   |    Зарегистрирован:  5 лет 4 месяца   |    .torrent скачан:  17 раз   |   
Раздают:  1  
   
Загрузка...
 
Автор Сообщение

Umakiro

avatar Umakiro


Mina / La banda

Жанр: Italo-Pop
Год издания: 2012
Издатель (лейбл): Butterfly Music
Страна: Italy
Аудиокодек: FLAC (*.flac)
Тип рипа: image+.cue
Битрейт аудио: lossless
Продолжительность: 38:46
Источник (релизер): Speedyclick
Наличие сканов в содержимом раздачи: да
Треклист:
01. La banda
02. Se tu non fossi qui
03. Uno
04. Ebb tide
05. Io sono quel che sono
06. Mi sei scoppiato dentro il cuore
07. Addio
08. Un anno d'amore
09. Ta-ra-ta-ta (Try your luck)
10. Se piangi se ridi
11. The nearness of you
12. L'ultima occasione
13. Canta ragazzina
14. Sabati e domeniche

http://www.minamazzini.com/
http://en.wikipedia.org/wiki/Mina_%28singer%29
  
Exact Audio Copy V1.0 beta 3 from 29. August 2011

EAC extraction logfile from 23. June 2012, 5:07

Mina / La Banda

Used drive : HL-DT-STDVDRAM GH10N Adapter: 1 ID: 1

Read mode : SecureUtilize accurate stream : YesDefeat audio cache : YesMake use of C2 pointers : No

Read offset correction : 667Overread into Lead-In and Lead-Out : NoFill up missing offset samples with silence : YesDelete leading and trailing silent blocks : NoNull samples used in CRC calculations : YesUsed interface : Native Win32 interface for Win NT & 2000

Used output format : User Defined EncoderSelected bitrate : 1024 kBit/sQuality : HighAdd ID3 tag : YesCommand line compressor : C:\Program Files\Exact Audio Copy New\Flac\flac.exeAdditional command line options : -V -5 -T "artist=%artist%" -T "title=%title%" -T "album=%albumtitle%" -T "tracknumber=%tracknr2%" -T "genre=%genre%" -5 %source%

TOC of the extracted CD

Track | Start | Length | Start sector | End sector---------------------------------------------------------1 | 0:00.00 | 2:39.60 | 0 | 119842 | 2:39.60 | 3:05.35 | 11985 | 258943 | 5:45.20 | 2:59.15 | 25895 | 393344 | 8:44.35 | 2:46.27 | 39335 | 518115 | 11:30.62 | 2:15.68 | 51812 | 620046 | 13:46.55 | 3:09.22 | 62005 | 762017 | 16:56.02 | 2:30.00 | 76202 | 874518 | 19:26.02 | 3:15.28 | 87452 | 1021049 | 22:41.30 | 2:11.32 | 102105 | 11196110 | 24:52.62 | 2:33.00 | 111962 | 12343611 | 27:25.62 | 2:42.50 | 123437 | 13563612 | 30:08.37 | 2:48.05 | 135637 | 14824113 | 32:56.42 | 3:03.40 | 148242 | 16200614 | 36:00.07 | 2:46.65 | 162007 | 174521

Range status and errors

Selected range

Filename S:\MUSIC\Uploaded\Mina - La Banda\Mina - La Banda.wav

Peak level 100.0 %Extraction speed 5.1 XRange quality 99.9 %Test CRC 30B66153Copy CRC 30B66153Copy OK

No errors occurred

AccurateRip summary

Track 1 not present in databaseTrack 2 not present in databaseTrack 3 not present in databaseTrack 4 not present in databaseTrack 5 not present in databaseTrack 6 not present in databaseTrack 7 not present in databaseTrack 8 not present in databaseTrack 9 not present in databaseTrack 10 not present in databaseTrack 11 not present in databaseTrack 12 not present in databaseTrack 13 not present in databaseTrack 14 not present in database

None of the tracks are present in the AccurateRip database

End of status report

---- CUETools DB Plugin V2.1.3

[CTDB TOCID: _N.wZrGGO8PT9fB53aoGSY4j0so-] disk not present in database, Submit result: _N.wZrGGO8PT9fB53aoGSY4j0so- has been uploaded

==== Log checksum A2CD31C72C8AF595519C0630F6ACD1B7EB4333C1E73A0080E0C6ED739A708878 ====
  
-----------------------

DON'T MODIFY THIS FILE

-----------------------

PERFORMER: auCDtect Task Manager, ver. 1.5.1RC4 build 1.5.1.5Copyright (c) 2008-2010 y-soft. All rights reservedhttp://y-soft.org

ANALYZER: auCDtect: CD records authenticity detector, version 0.8.2Copyright (c) 2004 Oleg Berngardt. All rights reserved.Copyright (c) 2004 Alexander Djourik. All rights reserved.

FILE: Mina - La Banda.flac Size: 227747076 Hash: 80D3A584E4504A237404D7FD3636A2D6 Accuracy: -m0 Conclusion: CDDA 100% Signature: 3E5EEE2201F1FC2729E83EE88F808A445C0A7BC8
This is a 2012 remastered re-release of a 1988 collection with popular hits from the sixties. The great italian diva, interprets with her powerful and expressive voice Sanremo songs like "Se piangi se ridi" and "Canta ragazzina", but also beautiful italian versions of the classic "Ebb tide", Luz Cazal's "Recordaras" (Un anno d'amore), even Norah Jones' "The nearness of you" in english. Enjoy nostalgic oldies from a fresh lossless rip.


Трекер:  [ 25-Июн-2012 20:25 ]

  

Скачать .torrent

Размер .torrent файла 18 KB


Размер: 220 MB
Хэш (hash) релиза: a2b416fac74e79db405c0e309fb86361fda0c8be

Еще никто не оставлял запись к записи скачать торрент Mina - La banda - 2012, FLAC . Будь первым!

!Обратная связь