Скачать через торрент музыку Christine 23 Onna - Shiny Crystal Planet - 2000, FLAC бесплатно без регистрации torrent

Если у вас наблюдаются проблемы со скриншотами, переходом по ссылками, скачиванием торрентов - проблемы в блокировщике рекламы AdBlock. #хорошегоДня!


Статистика раздачи
Размер:  355 MB   |    Зарегистрирован:  5 лет 1 месяц   |    .torrent скачан:  5 раз   |   
Раздают:  1  
   
Загрузка...
 
Автор Сообщение

Umakiro

avatar Umakiro


Christine 23 Onna - Shiny Crystal Planet

Жанр: Psychedelic Rock
Страна-производитель диска: Japan
Год издания: 2000
Издатель (лейбл): Alchemy Records
Номер по каталогу: ARCD-119
Страна: Japan
Аудиокодек: FLAC (*.flac)
Тип рипа: tracks+.cue
Битрейт аудио: lossless
Продолжительность: 47:25
Источник (релизер): what.cd (big thanks to Scythian)
Наличие сканов в содержимом раздачи: нет
Треклист:
01. Drive To Crystal Planet (6:08)
02. Cosmic Jungle (3:28)
03. Christine Hop #1 (3:57)
04. Christine Hop #2 (2:46)
05. Insect Voice (0:48)
06. Mondo Nude Mode (4:53)
07. Groovy Spacy '70 (7:13)
08. Hypnosis (5:37)
09. Under Cover of Darkness (2:27)
10. Pulse On Pulse (3:46)
11. Moon Over (4:58)
12. New Dawn On Crystal Planet (1:24)

Discogs.com
  
Exact Audio Copy V1.0 beta 1 from 15. November 2010

EAC extraction logfile from 23. April 2012, 20:23

Christine 23 Onna / Shiny Crystal Planet

Used drive : HL-DT-STDVDRAM GH22NS50 Adapter: 2 ID: 0

Read mode : SecureUtilize accurate stream : YesDefeat audio cache : YesMake use of C2 pointers : No

Read offset correction : 667Overread into Lead-In and Lead-Out : NoFill up missing offset samples with silence : YesDelete leading and trailing silent blocks : NoNull samples used in CRC calculations : YesUsed interface : Native Win32 interface for Win NT & 2000Gap handling : Appended to previous track

Used output format : User Defined EncoderSelected bitrate : 1024 kBit/sQuality : HighAdd ID3 tag : NoCommand line compressor : C:\Program Files\Exact Audio Copy\Flac\FLAC.EXEAdditional command line options : -V -8 -T "artist=%a" -T "title=%t" -T "album=%g" -T "date=%y" -T "tracknumber=%n" -T "genre=%m" %s

TOC of the extracted CD

Track | Start | Length | Start sector | End sector --------------------------------------------------------- 1 | 0:00.00 | 6:08.33 | 0 | 27632 2 | 6:08.33 | 3:27.65 | 27633 | 43222 3 | 9:36.23 | 3:57.07 | 43223 | 61004 4 | 13:33.30 | 2:46.10 | 61005 | 73464 5 | 16:19.40 | 0:48.28 | 73465 | 77092 6 | 17:07.68 | 4:53.09 | 77093 | 99076 7 | 22:01.02 | 7:12.53 | 99077 | 131529 8 | 29:13.55 | 5:36.65 | 131530 | 156794 9 | 34:50.45 | 2:27.11 | 156795 | 167830 10 | 37:17.56 | 3:45.47 | 167831 | 184752 11 | 41:03.28 | 4:57.62 | 184753 | 207089 12 | 46:01.15 | 1:24.36 | 207090 | 213425

Track 1

Filename F:\BT\Christine 23 Onna - Shiny Chrystal Planet (2000) FLAC\Christine 23 Onna - 01 - Drive To Crystal Planet.wav

Pre-gap length 0:00:02.00

Peak level 99.1 % Extraction speed 1.1 X Track quality 100.0 % Test CRC 9FCFBB49 Copy CRC 9FCFBB49 Track not present in AccurateRip database Copy OK

Track 2

Filename F:\BT\Christine 23 Onna - Shiny Chrystal Planet (2000) FLAC\Christine 23 Onna - 02 - Cosmic Jungle.wav

Peak level 97.6 % Extraction speed 1.0 X Track quality 99.9 % Test CRC AA2126D9 Copy CRC AA2126D9 Track not present in AccurateRip database Copy OK

Track 3

Filename F:\BT\Christine 23 Onna - Shiny Chrystal Planet (2000) FLAC\Christine 23 Onna - 03 - Christine Hop #1.wav

Peak level 98.0 % Extraction speed 1.1 X Track quality 99.9 % Test CRC 01987DAE Copy CRC 01987DAE Track not present in AccurateRip database Copy OK

Track 4

Filename F:\BT\Christine 23 Onna - Shiny Chrystal Planet (2000) FLAC\Christine 23 Onna - 04 - Christine Hop #2.wav

Peak level 99.4 % Extraction speed 1.3 X Track quality 100.0 % Test CRC 3E50D446 Copy CRC 3E50D446 Track not present in AccurateRip database Copy OK

Track 5

Filename F:\BT\Christine 23 Onna - Shiny Chrystal Planet (2000) FLAC\Christine 23 Onna - 05 - Insect Voice.wav

Peak level 84.9 % Extraction speed 0.8 X Track quality 100.0 % Test CRC 879F83B2 Copy CRC 879F83B2 Track not present in AccurateRip database Copy OK

Track 6

Filename F:\BT\Christine 23 Onna - Shiny Chrystal Planet (2000) FLAC\Christine 23 Onna - 06 - Mondo Nude Mode.wav

Peak level 97.7 % Extraction speed 1.5 X Track quality 100.0 % Test CRC 67468591 Copy CRC 67468591 Track not present in AccurateRip database Copy OK

Track 7

Filename F:\BT\Christine 23 Onna - Shiny Chrystal Planet (2000) FLAC\Christine 23 Onna - 07 - Groovy Spacy '70.wav

Peak level 98.9 % Extraction speed 1.5 X Track quality 99.9 % Test CRC 3D99DB7F Copy CRC 3D99DB7F Track not present in AccurateRip database Copy OK

Track 8

Filename F:\BT\Christine 23 Onna - Shiny Chrystal Planet (2000) FLAC\Christine 23 Onna - 08 - Hypnosis.wav

Peak level 99.3 % Extraction speed 1.8 X Track quality 100.0 % Test CRC B8CF9269 Copy CRC B8CF9269 Track not present in AccurateRip database Copy OK

Track 9

Filename F:\BT\Christine 23 Onna - Shiny Chrystal Planet (2000) FLAC\Christine 23 Onna - 09 - Under Cover of Darkness.wav

Peak level 97.3 % Extraction speed 1.6 X Track quality 100.0 % Test CRC DCB833E5 Copy CRC DCB833E5 Track not present in AccurateRip database Copy OK

Track 10

Filename F:\BT\Christine 23 Onna - Shiny Chrystal Planet (2000) FLAC\Christine 23 Onna - 10 - Pulse On Pulse.wav

Peak level 98.0 % Extraction speed 1.8 X Track quality 100.0 % Test CRC 1784CE2C Copy CRC 1784CE2C Track not present in AccurateRip database Copy OK

Track 11

Filename F:\BT\Christine 23 Onna - Shiny Chrystal Planet (2000) FLAC\Christine 23 Onna - 11 - Moon Over.wav

Peak level 98.9 % Extraction speed 1.9 X Track quality 100.0 % Test CRC FD5A708A Copy CRC FD5A708A Track not present in AccurateRip database Copy OK

Track 12

Filename F:\BT\Christine 23 Onna - Shiny Chrystal Planet (2000) FLAC\Christine 23 Onna - 12 - New Dawn On Crystal Planet.wav

Peak level 97.7 % Extraction speed 1.5 X Track quality 100.0 % Test CRC 165916D6 Copy CRC 165916D6 Track not present in AccurateRip database Copy OK

None of the tracks are present in the AccurateRip database

No errors occurred

End of status report

==== Log checksum 14D01A2753C41387E2ABEF088EE3D17C4B5238E3B01C533854DB2E34BDA88EDA ====
  
REM GENRE "Psychedelic Rock"REM DATE 2000REM DISCID A70B1D0CREM COMMENT "ExactAudioCopy v1.0b1"PERFORMER "Christine 23 Onna"TITLE "Shiny Crystal Planet"FILE "01 - Drive To Crystal Planet.wav" WAVE TRACK 01 AUDIO TITLE "Drive To Crystal Planet" PERFORMER "Christine 23 Onna" INDEX 01 00:00:00FILE "02 - Cosmic Jungle.wav" WAVE TRACK 02 AUDIO TITLE "Cosmic Jungle" PERFORMER "Christine 23 Onna" INDEX 01 00:00:00FILE "03 - Christine Hop #1.wav" WAVE TRACK 03 AUDIO TITLE "Christine Hop #1" PERFORMER "Christine 23 Onna" INDEX 01 00:00:00FILE "04 - Christine Hop #2.wav" WAVE TRACK 04 AUDIO TITLE "Christine Hop #2" PERFORMER "Christine 23 Onna" INDEX 01 00:00:00FILE "05 - Insect Voice.wav" WAVE TRACK 05 AUDIO TITLE "Insect Voice" PERFORMER "Christine 23 Onna" INDEX 01 00:00:00FILE "06 - Mondo Nude Mode.wav" WAVE TRACK 06 AUDIO TITLE "Mondo Nude Mode" PERFORMER "Christine 23 Onna" INDEX 01 00:00:00FILE "07 - Groovy Spacy '70.wav" WAVE TRACK 07 AUDIO TITLE "Groovy Spacy '70" PERFORMER "Christine 23 Onna" INDEX 01 00:00:00FILE "08 - Hypnosis.wav" WAVE TRACK 08 AUDIO TITLE "Hypnosis" PERFORMER "Christine 23 Onna" INDEX 01 00:00:00FILE "09 - Under Cover of Darkness.wav" WAVE TRACK 09 AUDIO TITLE "Under Cover Of Darkness" PERFORMER "Christine 23 Onna" INDEX 01 00:00:00FILE "10 - Pulse On Pulse.wav" WAVE TRACK 10 AUDIO TITLE "Pulse On Pulse" PERFORMER "Christine 23 Onna" INDEX 01 00:00:00FILE "11 - Moon Over.wav" WAVE TRACK 11 AUDIO TITLE "Moon Over" PERFORMER "Christine 23 Onna" INDEX 01 00:00:00FILE "12 - New Dawn On Crystal Planet.wav" WAVE TRACK 12 AUDIO TITLE "New Dawn On Crystal Planet" PERFORMER "Christine 23 Onna" INDEX 01 00:00:00



Трекер:  [ 25-Июн-2012 20:25 ]

  

Скачать .torrent

Размер .torrent файла 57 KB


Размер: 355 MB
Хэш (hash) релиза: e48feb70dca7874269bca835934b294342d55687

Еще никто не оставлял запись к записи скачать торрент Christine 23 Onna - Shiny Crystal Planet - 2000, FLAC . Будь первым!

!Обратная связь