Скачать через торрент музыку Gillan - Higher And Higher - 2005, WavPack бесплатно без регистрации torrent

Если у вас наблюдаются проблемы со скриншотами, переходом по ссылками, скачиванием торрентов - проблемы в блокировщике рекламы AdBlock. #хорошегоДня!


Статистика раздачи
Размер:  368 MB   |    Зарегистрирован:  5 лет 1 месяц   |    .torrent скачан:  11 раз   |   
Раздают:  1  
   
Загрузка...
 
Автор Сообщение

Umakiro

avatar Umakiro


Gillan / Higher And Higher

Жанр: Hard Rock
Год издания: 2005
Страна изготовитель диска: Netherlands
Издатель (лейбл): Hallmark Recordings
Номер по каталогу: 705522
Страна: UK
Аудиокодек: WavPack (*.wv)
Тип рипа: image+.cue
Битрейт аудио: lossless
Продолжительность: 00:48:35
Источник (релизер): galaxy / Boris1
Наличие сканов в содержимом раздачи: да
Треклист:
01. Maelstrom (4:49)
02. Bad News (3:59)
03. Fiji (5:02)
04. Come Tomorrow (3:03)
05. No Easy Way (3:16)
06. Restless (3:07)
07. Higher And Higher (3:47)
08. Purple Sky (3:43)
09. M.A.D. (Mutually Assured Destruction) (3:24)
10. Running White Face City Boy (3:14)
11. Smoke On The Water (6:43)
12. The Festivals Of Spirit (4:22)
  
Exact Audio Copy V1.0 beta 1 from 15. November 2010

EAC extraction logfile from 22. June 2012, 10:42

Gillan / Higher And Higher

Used drive : SAMSUNG DVD-ROM SD-616E Adapter: 3 ID: 0

Read mode : SecureUtilize accurate stream : YesDefeat audio cache : YesMake use of C2 pointers : No

Read offset correction : 12Overread into Lead-In and Lead-Out : NoFill up missing offset samples with silence : YesDelete leading and trailing silent blocks : NoNull samples used in CRC calculations : YesUsed interface : Native Win32 interface for Win NT & 2000

Used output format : Internal WAV RoutinesSample format : 44.100 Hz; 16 Bit; Stereo

TOC of the extracted CD

Track | Start | Length | Start sector | End sector --------------------------------------------------------- 1 | 0:00.00 | 4:49.63 | 0 | 21737 2 | 4:49.63 | 3:59.27 | 21738 | 39689 3 | 8:49.15 | 5:02.40 | 39690 | 62379 4 | 13:51.55 | 3:03.72 | 62380 | 76176 5 | 16:55.52 | 3:16.22 | 76177 | 90898 6 | 20:11.74 | 3:07.68 | 90899 | 104991 7 | 23:19.67 | 3:47.22 | 104992 | 122038 8 | 27:07.14 | 3:43.10 | 122039 | 138773 9 | 30:50.24 | 3:24.67 | 138774 | 154140 10 | 34:15.16 | 3:14.23 | 154141 | 168713 11 | 37:29.39 | 6:43.29 | 168714 | 198967 12 | 44:12.68 | 4:22.10 | 198968 | 218627

Range status and errors

Selected range

Filename C:\Documents and Settings\Borya\Desktop\GilHiAnHi\Gillan - Higher And Higher.wav

Peak level 100.0 % Extraction speed 0.2 X Range quality 100.0 % Copy CRC E0E48E52 Copy OK

No errors occurred

AccurateRip summary

Track 1 not present in databaseTrack 2 not present in databaseTrack 3 not present in databaseTrack 4 not present in databaseTrack 5 not present in databaseTrack 6 not present in databaseTrack 7 not present in databaseTrack 8 not present in databaseTrack 9 not present in databaseTrack 10 not present in databaseTrack 11 not present in databaseTrack 12 not present in database

None of the tracks are present in the AccurateRip database

End of status report


Трекер:  [ 25-Июн-2012 20:26 ]

  

Скачать .torrent

Размер .torrent файла 15 KB


Размер: 368 MB
Хэш (hash) релиза: ed3395c5de684209903d2d3aacd5cf6b044ebd45

Еще никто не оставлял запись к записи скачать торрент Gillan - Higher And Higher - 2005, WavPack . Будь первым!

!Обратная связь