Скачать через торрент музыку The Fray - Коллекция: 2003-2012 бесплатно без регистрации torrent

Если у вас наблюдаются проблемы со скриншотами, переходом по ссылками, скачиванием торрентов - проблемы в блокировщике рекламы AdBlock. #хорошегоДня!


Статистика раздачи
Размер:  1.73 GB   |    Зарегистрирован:  5 лет 3 месяца   |    .torrent скачан:  16 раз   |   
Раздают:  1  
   
Загрузка...
 
Автор Сообщение

Umakiro

avatar Umakiro


THE FRAYколлекция

Жанр: Pop Rock/Alt Rock
Год издания диска: 2003-2012
Страна: USA (Denver, Colorado)
Аудио кодек: FLAC (*.flac)
Тип рипа: tracks+.cue
Битрейт аудио: lossless
Коврики: есть
Издатель (лейбл): Epic
01. Together [EP Version] - 2:23
02. Some Trust [EP Version] - 2:54
03. Vienna [Original EP Version] - 3:49
04. Without Reason - 3:33
05. City Hall - 3:00
06. Oceans [EP Version] - 3:58
07. Unsaid [EP Version] - 3:04
  
Exact Audio Copy V0.99 prebeta 5 from 4. May 2009

EAC extraction logfile from 1. September 2011, 11:33

The Fray / Reason

Used drive : PIONEER DVD-RW DVR-118L Adapter: 2 ID: 0

Read mode : SecureUtilize accurate stream : YesDefeat audio cache : YesMake use of C2 pointers : No

Read offset correction : 6Overread into Lead-In and Lead-Out : NoFill up missing offset samples with silence : YesDelete leading and trailing silent blocks : NoNull samples used in CRC calculations : YesUsed interface : Native Win32 interface for Win NT & 2000Gap handling : Appended to previous track

Used output format : User Defined EncoderSelected bitrate : 128 kBit/sQuality : HighAdd ID3 tag : NoCommand line compressor : C:\Program Files (x86)\Exact Audio Copy\Flac\flac.exeAdditional command line options : -8 -V -T "ARTIST=%a" -T "TITLE=%t" -T "ALBUM=%g" -T "DATE=%y"-T "TRACKNUMBER=%n" -T "GENRE=%m" -T "COMMENT=EAC FLAC -8" %s

TOC of the extracted CD

Track | Start | Length | Start sector | End sector --------------------------------------------------------- 1 | 0:00.00 | 2:23.66 | 0 | 10790 2 | 2:23.66 | 2:54.22 | 10791 | 23862 3 | 5:18.13 | 3:49.45 | 23863 | 41082 4 | 9:07.58 | 3:33.27 | 41083 | 57084 5 | 12:41.10 | 3:00.73 | 57085 | 70657 6 | 15:42.08 | 3:58.55 | 70658 | 88562 7 | 19:40.63 | 3:04.08 | 88563 | 102370

Track 1

Filename D:\Торрент\The Fray\2003 - Reason [EP]\01. The Fray - Together [EP Version].wav

Pre-gap length 0:00:02.00

Peak level 98.8 % Track quality 100.0 % Test CRC 2E418203 Copy CRC 2E418203 Accurately ripped (confidence 9) [36161E51] Copy OK

Track 2

Filename D:\Торрент\The Fray\2003 - Reason [EP]\02. The Fray - Some Trust [EP Version].wav

Peak level 98.8 % Track quality 100.0 % Test CRC 508C53CA Copy CRC 508C53CA Accurately ripped (confidence 9) [915E2977] Copy OK

Track 3

Filename D:\Торрент\The Fray\2003 - Reason [EP]\03. The Fray - Vienna [Original EP Version].wav

Peak level 99.2 % Track quality 100.0 % Test CRC BE510274 Copy CRC BE510274 Accurately ripped (confidence 9) [6EAE7547] Copy OK

Track 4

Filename D:\Торрент\The Fray\2003 - Reason [EP]\04. The Fray - Without Reason.wav

Pre-gap length 0:00:00.38

Peak level 98.8 % Track quality 100.0 % Test CRC DDA43856 Copy CRC DDA43856 Accurately ripped (confidence 9) [4F27C099] Copy OK

Track 5

Filename D:\Торрент\The Fray\2003 - Reason [EP]\05. The Fray - City Hall.wav

Peak level 98.8 % Track quality 99.9 % Test CRC 6A2C5D8F Copy CRC 6A2C5D8F Accurately ripped (confidence 9) [07D61D71] Copy OK

Track 6

Filename D:\Торрент\The Fray\2003 - Reason [EP]\06. The Fray - Oceans [EP Version].wav

Peak level 98.8 % Track quality 99.9 % Test CRC 50660037 Copy CRC 50660037 Accurately ripped (confidence 9) [E64849A8] Copy OK

Track 7

Filename D:\Торрент\The Fray\2003 - Reason [EP]\07. The Fray - Unsaid [EP Version].wav

Pre-gap length 0:00:00.40

Peak level 98.8 % Track quality 100.0 % Test CRC A1831488 Copy CRC A1831488 Accurately ripped (confidence 9) [E64D6273] Copy OK

All tracks accurately ripped

No errors occurred

End of status report
  
REM GENRE RockREM DATE 2003REM DISCID 50055407REM COMMENT "ExactAudioCopy v0.99pb5"PERFORMER "The Fray"TITLE "Reason"FILE "01. The Fray - Together [EP Version].wav" WAVE TRACK 01 AUDIO TITLE "Together [EP Version]" PERFORMER "The Fray" INDEX 01 00:00:00FILE "02. The Fray - Some Trust [EP Version].wav" WAVE TRACK 02 AUDIO TITLE "Some Trust [EP Version]" PERFORMER "The Fray" INDEX 01 00:00:00FILE "03. The Fray - Vienna [Original EP Version].wav" WAVE TRACK 03 AUDIO TITLE "Vienna [Original EP Version]" PERFORMER "The Fray" INDEX 01 00:00:00 TRACK 04 AUDIO TITLE "Without Reason" PERFORMER "The Fray" INDEX 00 03:49:16FILE "04. The Fray - Without Reason.wav" WAVE INDEX 01 00:00:00FILE "05. The Fray - City Hall.wav" WAVE TRACK 05 AUDIO TITLE "City Hall" PERFORMER "The Fray" INDEX 01 00:00:00FILE "06. The Fray - Oceans [EP Version].wav" WAVE TRACK 06 AUDIO TITLE "Oceans [EP Version]" PERFORMER "The Fray" INDEX 01 00:00:00 TRACK 07 AUDIO TITLE "Unsaid [EP Version]" PERFORMER "The Fray" INDEX 00 03:58:25FILE "07. The Fray - Unsaid [EP Version].wav" WAVE INDEX 01 00:00:00
Издатель (лейбл): Epic
01. How to Save a Life - 4:42
02. She Is - 4:17
03. All at Once - 4:03
04. "Chips and Salsa" - 0:37
05. Heaven Forbid - 4:18
06. Interlude 1 0:48
07. Vienna - 5:39
08. Dead Wrong - 3:22
09. "It's Not Easy Being Skinny" - 0:36
10. Over My Head (Cable Car) - 4:21
11. Interlude 2 - 0:25
12. Look After You - 7:28
13. Trust Me - 13:33
  
Exact Audio Copy V0.99 prebeta 5 from 4. May 2009

EAC extraction logfile from 1. September 2011, 12:55

The Fray / Live At The Electric Factory Bootleg No. 1

Used drive : PIONEER DVD-RW DVR-118L Adapter: 2 ID: 0

Read mode : SecureUtilize accurate stream : YesDefeat audio cache : YesMake use of C2 pointers : No

Read offset correction : 6Overread into Lead-In and Lead-Out : NoFill up missing offset samples with silence : YesDelete leading and trailing silent blocks : NoNull samples used in CRC calculations : YesUsed interface : Native Win32 interface for Win NT & 2000Gap handling : Appended to previous track

Used output format : User Defined EncoderSelected bitrate : 128 kBit/sQuality : HighAdd ID3 tag : NoCommand line compressor : C:\Program Files (x86)\Exact Audio Copy\Flac\flac.exeAdditional command line options : -8 -V -T "ARTIST=%a" -T "TITLE=%t" -T "ALBUM=%g" -T "DATE=%y"-T "TRACKNUMBER=%n" -T "GENRE=%m" -T "COMMENT=EAC FLAC -8" %s

TOC of the extracted CD

Track | Start | Length | Start sector | End sector --------------------------------------------------------- 1 | 0:00.00 | 4:41.47 | 0 | 21121 2 | 4:41.47 | 4:16.53 | 21122 | 40374 3 | 8:58.25 | 4:02.51 | 40375 | 58575 4 | 13:01.01 | 0:36.46 | 58576 | 61321 5 | 13:37.47 | 4:17.60 | 61322 | 80656 6 | 17:55.32 | 0:48.37 | 80657 | 84293 7 | 18:43.69 | 5:39.11 | 84294 | 109729 8 | 24:23.05 | 3:22.13 | 109730 | 124892 9 | 27:45.18 | 0:36.27 | 124893 | 127619 10 | 28:21.45 | 4:20.53 | 127620 | 147172 11 | 32:42.23 | 0:25.10 | 147173 | 149057 12 | 33:07.33 | 7:27.41 | 149058 | 182623 13 | 40:34.74 | 13:32.40 | 182624 | 243563

Track 1

Filename D:\Торрент\The Fray\2006 - The Fray Live at the Electric Factory, Bootleg No. 1\01. The Fray - How To Save a Life.wav

Pre-gap length 0:00:02.00

Peak level 99.1 % Track quality 100.0 % Test CRC 4EAF6420 Copy CRC 4EAF6420 Accurately ripped (confidence 2) [D5FBFBC9] Copy OK

Track 2

Filename D:\Торрент\The Fray\2006 - The Fray Live at the Electric Factory, Bootleg No. 1\02. The Fray - She Is.wav

Peak level 99.1 % Track quality 99.9 % Test CRC 200BBB06 Copy CRC 200BBB06 Accurately ripped (confidence 1) [8C67104D] Copy OK

Track 3

Filename D:\Торрент\The Fray\2006 - The Fray Live at the Electric Factory, Bootleg No. 1\03. The Fray - All At Once.wav

Peak level 99.1 % Track quality 100.0 % Test CRC 96B5FD0B Copy CRC 96B5FD0B Accurately ripped (confidence 1) [B4399177] Copy OK

Track 4

Filename D:\Торрент\The Fray\2006 - The Fray Live at the Electric Factory, Bootleg No. 1\04. The Fray - 'Chips & Salsa'.wav

Peak level 77.7 % Track quality 100.0 % Test CRC 98179280 Copy CRC 98179280 Accurately ripped (confidence 1) [695DE2F2] Copy OK

Track 5

Filename D:\Торрент\The Fray\2006 - The Fray Live at the Electric Factory, Bootleg No. 1\05. The Fray - Heaven Forbid.wav

Peak level 99.1 % Track quality 100.0 % Test CRC E65BD636 Copy CRC E65BD636 Accurately ripped (confidence 1) [88348BAA] Copy OK

Track 6

Filename D:\Торрент\The Fray\2006 - The Fray Live at the Electric Factory, Bootleg No. 1\06. The Fray - Interlude I.wav

Peak level 51.3 % Track quality 99.7 % Test CRC C48C6C49 Copy CRC C48C6C49 Accurately ripped (confidence 1) [8E1C8978] Copy OK

Track 7

Filename D:\Торрент\The Fray\2006 - The Fray Live at the Electric Factory, Bootleg No. 1\07. The Fray - Vienna.wav

Peak level 99.1 % Track quality 100.0 % Test CRC A6F38421 Copy CRC A6F38421 Accurately ripped (confidence 1) [4E6B3865] Copy OK

Track 8

Filename D:\Торрент\The Fray\2006 - The Fray Live at the Electric Factory, Bootleg No. 1\08. The Fray - Dead Wrong.wav

Peak level 99.1 % Track quality 100.0 % Test CRC B0F0A6DA Copy CRC B0F0A6DA Accurately ripped (confidence 1) [01A50C15] Copy OK

Track 9

Filename D:\Торрент\The Fray\2006 - The Fray Live at the Electric Factory, Bootleg No. 1\09. The Fray - 'It's Not Easy Being Skinny'.wav

Peak level 58.1 % Track quality 100.0 % Test CRC 8CF2081C Copy CRC 8CF2081C Accurately ripped (confidence 1) [F0471C58] Copy OK

Track 10

Filename D:\Торрент\The Fray\2006 - The Fray Live at the Electric Factory, Bootleg No. 1\10. The Fray - Over My Head (Cable Car).wav

Peak level 99.1 % Track quality 100.0 % Test CRC F3057562 Copy CRC F3057562 Accurately ripped (confidence 2) [47027E58] Copy OK

Track 11

Filename D:\Торрент\The Fray\2006 - The Fray Live at the Electric Factory, Bootleg No. 1\11. The Fray - Interlude II.wav

Peak level 86.8 % Track quality 100.0 % Test CRC 5FC8398A Copy CRC 5FC8398A Accurately ripped (confidence 1) [9A3EABB2] Copy OK

Track 12

Filename D:\Торрент\The Fray\2006 - The Fray Live at the Electric Factory, Bootleg No. 1\12. The Fray - Look After You.wav

Peak level 99.1 % Track quality 100.0 % Test CRC C894074F Copy CRC C894074F Accurately ripped (confidence 2) [C01257F9] Copy OK

Track 13

Filename D:\Торрент\The Fray\2006 - The Fray Live at the Electric Factory, Bootleg No. 1\13. The Fray - Trust Me.wav

Peak level 99.1 % Track quality 100.0 % Test CRC 69054062 Copy CRC 69054062 Accurately ripped (confidence 1) [352B3175] Copy OK

All tracks accurately ripped

No errors occurred

End of status report
  
REM GENRE RockREM DATE 2006REM DISCID C10CAF0DREM COMMENT "ExactAudioCopy v0.99pb5"PERFORMER "The Fray"TITLE "Live At The Electric Factory Bootleg No. 1"FILE "01. The Fray - How To Save a Life.wav" WAVE TRACK 01 AUDIO TITLE "How To Save a Life" PERFORMER "The Fray" INDEX 01 00:00:00FILE "02. The Fray - She Is.wav" WAVE TRACK 02 AUDIO TITLE "She Is" PERFORMER "The Fray" INDEX 01 00:00:00FILE "03. The Fray - All At Once.wav" WAVE TRACK 03 AUDIO TITLE "All At Once" PERFORMER "The Fray" INDEX 01 00:00:00FILE "04. The Fray - 'Chips & Salsa'.wav" WAVE TRACK 04 AUDIO TITLE "'Chips & Salsa'" PERFORMER "The Fray" INDEX 01 00:00:00FILE "05. The Fray - Heaven Forbid.wav" WAVE TRACK 05 AUDIO TITLE "Heaven Forbid" PERFORMER "The Fray" INDEX 01 00:00:00FILE "06. The Fray - Interlude I.wav" WAVE TRACK 06 AUDIO TITLE "Interlude I" PERFORMER "The Fray" INDEX 01 00:00:00FILE "07. The Fray - Vienna.wav" WAVE TRACK 07 AUDIO TITLE "Vienna" PERFORMER "The Fray" INDEX 01 00:00:00FILE "08. The Fray - Dead Wrong.wav" WAVE TRACK 08 AUDIO TITLE "Dead Wrong" PERFORMER "The Fray" INDEX 01 00:00:00FILE "09. The Fray - 'It's Not Easy Being Skinny'.wav" WAVE TRACK 09 AUDIO TITLE "'It's Not Easy Being Skinny'" PERFORMER "The Fray" INDEX 01 00:00:00FILE "10. The Fray - Over My Head (Cable Car).wav" WAVE TRACK 10 AUDIO TITLE "Over My Head (Cable Car)" PERFORMER "The Fray" INDEX 01 00:00:00FILE "11. The Fray - Interlude II.wav" WAVE TRACK 11 AUDIO TITLE "Interlude II" PERFORMER "The Fray" INDEX 01 00:00:00FILE "12. The Fray - Look After You.wav" WAVE TRACK 12 AUDIO TITLE "Look After You" PERFORMER "The Fray" INDEX 01 00:00:00FILE "13. The Fray - Trust Me.wav" WAVE TRACK 13 AUDIO TITLE "Trust Me" PERFORMER "The Fray" INDEX 01 00:00:00
Издатель (лейбл): Epic
01. She Is - 3:59
02. Over My Head (Cable Car) - 3:58
03. How to Save a Life - 4:24
04. All at Once -3:48
05. Fall Away - 4:24
06. Heaven Forbid - 4:02
07. Look After You - 4:29
08. Hundred - 4:14
09. Vienna - 3:52
10. Dead Wrong - 3:06
11. Little House - 2:32
12. Trust Me - 3:23
13. Unsaid - 3:05
  
Exact Audio Copy V0.99 prebeta 5 from 4. May 2009

EAC extraction logfile from 1. September 2011, 17:38

The Fray / How to Save a Life

Used drive : PIONEER DVD-RW DVR-118L Adapter: 2 ID: 0

Read mode : SecureUtilize accurate stream : YesDefeat audio cache : YesMake use of C2 pointers : No

Read offset correction : 6Overread into Lead-In and Lead-Out : NoFill up missing offset samples with silence : YesDelete leading and trailing silent blocks : NoNull samples used in CRC calculations : YesUsed interface : Native Win32 interface for Win NT & 2000Gap handling : Appended to previous track

Used output format : User Defined EncoderSelected bitrate : 128 kBit/sQuality : HighAdd ID3 tag : NoCommand line compressor : C:\Program Files (x86)\Exact Audio Copy\Flac\flac.exeAdditional command line options : -8 -V -T "ARTIST=%a" -T "TITLE=%t" -T "ALBUM=%g" -T "DATE=%y"-T "TRACKNUMBER=%n" -T "GENRE=%m" -T "COMMENT=EAC FLAC -8" %s

TOC of the extracted CD

Track | Start | Length | Start sector | End sector --------------------------------------------------------- 1 | 0:00.00 | 3:58.67 | 0 | 17916 2 | 3:58.67 | 3:58.25 | 17917 | 35791 3 | 7:57.17 | 4:23.45 | 35792 | 55561 4 | 12:20.62 | 3:48.33 | 55562 | 72694 5 | 16:09.20 | 4:23.50 | 72695 | 92469 6 | 20:32.70 | 4:01.52 | 92470 | 110596 7 | 24:34.47 | 4:28.63 | 110597 | 130759 8 | 29:03.35 | 4:14.20 | 130760 | 149829 9 | 33:17.55 | 3:51.42 | 149830 | 167196 10 | 37:09.22 | 3:06.20 | 167197 | 181166 11 | 40:15.42 | 2:31.60 | 181167 | 192551 12 | 42:47.27 | 3:22.63 | 192552 | 207764 13 | 46:10.15 | 3:04.49 | 207765 | 221613

Track 1

Filename D:\Торрент\The Fray\2006 - How To Save A Life\01. The Fray - She Is.wav

Pre-gap length 0:00:02.00

Peak level 94.9 % Track quality 100.0 % Test CRC B2B0D6C4 Copy CRC B2B0D6C4 Accurately ripped (confidence 65) [2F7235B8] Copy OK

Track 2

Filename D:\Торрент\The Fray\2006 - How To Save A Life\02. The Fray - Over My Head (Cable Car).wav

Pre-gap length 0:00:02.36

Peak level 92.8 % Track quality 100.0 % Test CRC B5530403 Copy CRC B5530403 Accurately ripped (confidence 66) [16A67DC1] Copy OK

Track 3

Filename D:\Торрент\The Fray\2006 - How To Save A Life\03. The Fray - How to Save a Life.wav

Pre-gap length 0:00:02.06

Peak level 95.0 % Track quality 100.0 % Test CRC 74966290 Copy CRC 74966290 Accurately ripped (confidence 65) [5BF8C710] Copy OK

Track 4

Filename D:\Торрент\The Fray\2006 - How To Save A Life\04. The Fray - All at Once.wav

Pre-gap length 0:00:01.06

Peak level 95.5 % Track quality 99.9 % Test CRC 7EA73DFB Copy CRC 7EA73DFB Accurately ripped (confidence 67) [BD2C7D6F] Copy OK

Track 5

Filename D:\Торрент\The Fray\2006 - How To Save A Life\05. The Fray - Fall Away.wav

Pre-gap length 0:00:00.84

Peak level 94.9 % Track quality 99.9 % Test CRC 61CB18B8 Copy CRC 61CB18B8 Accurately ripped (confidence 67) [1F6906CC] Copy OK

Track 6

Filename D:\Торрент\The Fray\2006 - How To Save A Life\06. The Fray - Heaven Forbid.wav

Peak level 94.4 % Track quality 100.0 % Test CRC 6E4F3C27 Copy CRC 6E4F3C27 Accurately ripped (confidence 67) [11806D01] Copy OK

Track 7

Filename D:\Торрент\The Fray\2006 - How To Save A Life\07. The Fray - Look After You.wav

Pre-gap length 0:00:01.66

Peak level 95.6 % Track quality 100.0 % Test CRC A54437DB Copy CRC A54437DB Accurately ripped (confidence 67) [DAADBA74] Copy OK

Track 8

Filename D:\Торрент\The Fray\2006 - How To Save A Life\08. The Fray - Hundred.wav

Pre-gap length 0:00:02.06

Peak level 91.9 % Track quality 100.0 % Test CRC 86F8F031 Copy CRC 86F8F031 Accurately ripped (confidence 67) [F72A17AE] Copy OK

Track 9

Filename D:\Торрент\The Fray\2006 - How To Save A Life\09. The Fray - Vienna.wav

Pre-gap length 0:00:01.04

Peak level 92.4 % Track quality 100.0 % Test CRC F3E93165 Copy CRC F3E93165 Accurately ripped (confidence 67) [CC2D9EBF] Copy OK

Track 10

Filename D:\Торрент\The Fray\2006 - How To Save A Life\10. The Fray - Dead Wrong.wav

Pre-gap length 0:00:00.49

Peak level 94.9 % Track quality 99.9 % Test CRC D4938181 Copy CRC D4938181 Accurately ripped (confidence 68) [4C50F0B1] Copy OK

Track 11

Filename D:\Торрент\The Fray\2006 - How To Save A Life\11. The Fray - Little House.wav

Pre-gap length 0:00:01.06

Peak level 94.3 % Track quality 100.0 % Test CRC 2EFBE76A Copy CRC 2EFBE76A Accurately ripped (confidence 67) [BF06D161] Copy OK

Track 12

Filename D:\Торрент\The Fray\2006 - How To Save A Life\12. The Fray - Trust Me.wav

Pre-gap length 0:00:01.40

Peak level 94.9 % Track quality 100.0 % Test CRC 9D46AA4D Copy CRC 9D46AA4D Accurately ripped (confidence 67) [D1081972] Copy OK

Track 13

Filename D:\Торрент\The Fray\2006 - How To Save A Life\13. The Fray - Unsaid.wav

Peak level 99.7 % Track quality 99.9 % Test CRC 6EF8FB51 Copy CRC 6EF8FB51 Accurately ripped (confidence 67) [0364C2DA] Copy OK

All tracks accurately ripped

No errors occurred

End of status report
  
REM GENRE RockREM DATE 2006REM DISCID C10B8A0DREM COMMENT "ExactAudioCopy v0.99pb5"PERFORMER "The Fray"TITLE "How to Save a Life"FILE "01. The Fray - She Is.wav" WAVE TRACK 01 AUDIO TITLE "She Is" PERFORMER "The Fray" INDEX 01 00:00:00 TRACK 02 AUDIO TITLE "Over My Head (Cable Car)" PERFORMER "The Fray" INDEX 00 03:56:40FILE "02. The Fray - Over My Head (Cable Car).wav" WAVE INDEX 01 00:00:00 TRACK 03 AUDIO TITLE "How to Save a Life" PERFORMER "The Fray" INDEX 00 03:56:20FILE "03. The Fray - How to Save a Life.wav" WAVE INDEX 01 00:00:00 TRACK 04 AUDIO TITLE "All at Once" PERFORMER "The Fray" INDEX 00 04:22:40FILE "04. The Fray - All at Once.wav" WAVE INDEX 01 00:00:00 TRACK 05 AUDIO TITLE "Fall Away" PERFORMER "The Fray" INDEX 00 03:47:45FILE "05. The Fray - Fall Away.wav" WAVE INDEX 01 00:00:00FILE "06. The Fray - Heaven Forbid.wav" WAVE TRACK 06 AUDIO TITLE "Heaven Forbid" PERFORMER "The Fray" INDEX 01 00:00:00 TRACK 07 AUDIO TITLE "Look After You" PERFORMER "The Fray" INDEX 00 04:00:02FILE "07. The Fray - Look After You.wav" WAVE INDEX 01 00:00:00 TRACK 08 AUDIO TITLE "Hundred" PERFORMER "The Fray" INDEX 00 04:26:58FILE "08. The Fray - Hundred.wav" WAVE INDEX 01 00:00:00 TRACK 09 AUDIO TITLE "Vienna" PERFORMER "The Fray" INDEX 00 04:13:17FILE "09. The Fray - Vienna.wav" WAVE INDEX 01 00:00:00 TRACK 10 AUDIO TITLE "Dead Wrong" PERFORMER "The Fray" INDEX 00 03:51:05FILE "10. The Fray - Dead Wrong.wav" WAVE INDEX 01 00:00:00 TRACK 11 AUDIO TITLE "Little House" PERFORMER "The Fray" INDEX 00 03:05:15FILE "11. The Fray - Little House.wav" WAVE INDEX 01 00:00:00 TRACK 12 AUDIO TITLE "Trust Me" PERFORMER "The Fray" INDEX 00 02:30:30FILE "12. The Fray - Trust Me.wav" WAVE INDEX 01 00:00:00FILE "13. The Fray - Unsaid.wav" WAVE TRACK 13 AUDIO TITLE "Unsaid" PERFORMER "The Fray" INDEX 01 00:00:00
Издатель (лейбл): Epic
01. How to Save a Life - 4:24
02. How to Save a Life [Live] - 4:41
03. She Is [Live] - 3:28
  
Exact Audio Copy V0.99 prebeta 5 from 4. May 2009

EAC extraction logfile from 1. September 2011, 18:12

The Fray / How To Save A Life

Used drive : PIONEER DVD-RW DVR-118L Adapter: 2 ID: 0

Read mode : SecureUtilize accurate stream : YesDefeat audio cache : YesMake use of C2 pointers : No

Read offset correction : 6Overread into Lead-In and Lead-Out : NoFill up missing offset samples with silence : YesDelete leading and trailing silent blocks : NoNull samples used in CRC calculations : YesUsed interface : Native Win32 interface for Win NT & 2000Gap handling : Appended to previous track

Used output format : User Defined EncoderSelected bitrate : 128 kBit/sQuality : HighAdd ID3 tag : NoCommand line compressor : C:\Program Files (x86)\Exact Audio Copy\Flac\flac.exeAdditional command line options : -8 -V -T "ARTIST=%a" -T "TITLE=%t" -T "ALBUM=%g" -T "DATE=%y"-T "TRACKNUMBER=%n" -T "GENRE=%m" -T "COMMENT=EAC FLAC -8" %s

TOC of the extracted CD

Track | Start | Length | Start sector | End sector --------------------------------------------------------- 1 | 0:00.00 | 4:24.67 | 0 | 19866 2 | 4:24.67 | 4:41.04 | 19867 | 40945 3 | 9:05.71 | 3:28.43 | 40946 | 56588 4 | 15:06.39 | 8:26.21 | 67989 | 105959

Track 1

Filename D:\Торрент\The Fray\2007 - How to Save a Life (single)\01. The Fray - How to Save a Life [Album Version].wav

Pre-gap length 0:00:02.00

Peak level 94.3 % Track quality 100.0 % Test CRC 7F6EAA94 Copy CRC 7F6EAA94 Track not present in AccurateRip database Copy OK

Track 2

Filename D:\Торрент\The Fray\2007 - How to Save a Life (single)\02. The Fray - How to Save a Life [Live].wav

Pre-gap length 0:00:02.05

Peak level 100.0 % Track quality 100.0 % Test CRC 8AE2C985 Copy CRC 8AE2C985 Track not present in AccurateRip database Copy OK

Track 3

Filename D:\Торрент\The Fray\2007 - How to Save a Life (single)\03. The Fray - She Is [Live][Stripped Version].wav

Pre-gap length 0:00:01.45

Peak level 100.0 % Track quality 99.9 % Test CRC 155CB899 Copy CRC 155CB899 Track not present in AccurateRip database Copy OK

None of the tracks are present in the AccurateRip database

No errors occurred

End of status report
  
REM GENRE RockREM DATE 2007REM DISCID 31058404REM COMMENT "ExactAudioCopy v0.99pb5"PERFORMER "The Fray"TITLE "How To Save A Life"FILE "01. The Fray - How to Save a Life [Album Version].wav" WAVE TRACK 01 AUDIO TITLE "How to Save a Life [Album Version]" PERFORMER "The Fray" INDEX 01 00:00:00 TRACK 02 AUDIO TITLE "How to Save a Life [Live]" PERFORMER "The Fray" INDEX 00 04:22:63FILE "02. The Fray - How to Save a Life [Live].wav" WAVE INDEX 01 00:00:00 TRACK 03 AUDIO TITLE "She Is [Live][Stripped Version]" PERFORMER "The Fray" INDEX 00 04:39:45FILE "03. The Fray - She Is [Live][Stripped Version].wav" WAVE INDEX 01 00:00:00 TRACK 04 MODEx/2xxx TITLE "Track04" PERFORMER "The Fray" INDEX 00 03:28:43
Издатель (лейбл): Epic
01. Over My Head - 3:58
02. Over My Head (Acoustic)- 3:52
  
Exact Audio Copy V0.99 prebeta 5 from 4. May 2009

EAC extraction logfile from 1. September 2011, 18:34

The Fray / Over My Head (Cable Car)

Used drive : PIONEER DVD-RW DVR-118L Adapter: 2 ID: 0

Read mode : SecureUtilize accurate stream : YesDefeat audio cache : YesMake use of C2 pointers : No

Read offset correction : 6Overread into Lead-In and Lead-Out : NoFill up missing offset samples with silence : YesDelete leading and trailing silent blocks : NoNull samples used in CRC calculations : YesUsed interface : Native Win32 interface for Win NT & 2000Gap handling : Appended to previous track

Used output format : User Defined EncoderSelected bitrate : 128 kBit/sQuality : HighAdd ID3 tag : NoCommand line compressor : C:\Program Files (x86)\Exact Audio Copy\Flac\flac.exeAdditional command line options : -8 -V -T "ARTIST=%a" -T "TITLE=%t" -T "ALBUM=%g" -T "DATE=%y"-T "TRACKNUMBER=%n" -T "GENRE=%m" -T "COMMENT=EAC FLAC -8" %s

TOC of the extracted CD

Track | Start | Length | Start sector | End sector --------------------------------------------------------- 1 | 0:00.00 | 3:58.67 | 0 | 17916 2 | 3:58.67 | 3:52.67 | 17917 | 35383

Track 1

Filename D:\Торрент\The Fray\2007 - Over My Head (Cable Car) (single)\01. The Fray - Over My Head.wav

Pre-gap length 0:00:02.00

Peak level 86.9 % Track quality 100.0 % Test CRC B0CE1E25 Copy CRC B0CE1E25 Track not present in AccurateRip database Copy OK

Track 2

Filename D:\Торрент\The Fray\2007 - Over My Head (Cable Car) (single)\02. The Fray - Over My Head (Acoustic).wav

Pre-gap length 0:00:02.52

Peak level 100.0 % Track quality 100.0 % Test CRC 28003B60 Copy CRC 28003B60 Track not present in AccurateRip database Copy OK

None of the tracks are present in the AccurateRip database

No errors occurred

End of status report
  
REM GENRE RockREM DATE 2007REM DISCID 0801D702REM COMMENT "ExactAudioCopy v0.99pb5"PERFORMER "The Fray"TITLE "Over My Head (Cable Car)"FILE "01. The Fray - Over My Head.wav" WAVE TRACK 01 AUDIO TITLE "Over My Head" PERFORMER "The Fray" INDEX 01 00:00:00 TRACK 02 AUDIO TITLE "Over My Head (Acoustic)" PERFORMER "The Fray" INDEX 00 03:56:28FILE "02. The Fray - Over My Head (Acoustic).wav" WAVE INDEX 01 00:00:00
Издатель (лейбл): Epic
01. You Found Me - 4:03
02. The Great Beyond - 4:38
  
Exact Audio Copy V0.99 prebeta 5 from 4. May 2009

EAC extraction logfile from 1. September 2011, 18:57

The Fray / You Found Me

Used drive : PIONEER DVD-RW DVR-118L Adapter: 2 ID: 0

Read mode : SecureUtilize accurate stream : YesDefeat audio cache : YesMake use of C2 pointers : No

Read offset correction : 6Overread into Lead-In and Lead-Out : NoFill up missing offset samples with silence : YesDelete leading and trailing silent blocks : NoNull samples used in CRC calculations : YesUsed interface : Native Win32 interface for Win NT & 2000Gap handling : Appended to previous track

Used output format : User Defined EncoderSelected bitrate : 128 kBit/sQuality : HighAdd ID3 tag : NoCommand line compressor : C:\Program Files (x86)\Exact Audio Copy\Flac\flac.exeAdditional command line options : -8 -V -T "ARTIST=%a" -T "TITLE=%t" -T "ALBUM=%g" -T "DATE=%y" -T "TRACKNUMBER=%n" -T "GENRE=%m" -T "COMMENT=EAC FLAC -8" %s

TOC of the extracted CD

Track | Start | Length | Start sector | End sector --------------------------------------------------------- 1 | 0:00.00 | 4:03.38 | 0 | 18262 2 | 4:03.38 | 4:38.17 | 18263 | 39129

Track 1

Filename D:\Торрент\The Fray\2009 - You Found Me (single)\01. The Fray - You Found Me.wav

Pre-gap length 0:00:02.00

Peak level 100.0 % Track quality 100.0 % Test CRC 8AF6F3B5 Copy CRC 8AF6F3B5 Cannot be verified as accurate (confidence 1) [3825ADB1], AccurateRip returned [C2616448] Copy OK

Track 2

Filename D:\Торрент\The Fray\2009 - You Found Me (single)\02. The Fray - The Great Beyond.wav

Pre-gap length 0:00:00.82

Peak level 100.0 % Track quality 100.0 % Test CRC FD23239E Copy CRC FD23239E Accurately ripped (confidence 1) [DF30263A] Copy OK

1 track(s) accurately ripped 1 track(s) could not be verified as accurate

Some tracks could not be verified as accurate

No errors occurred

End of status report
  
REM GENRE RockREM DATE 2009REM DISCID 0D020902REM COMMENT "ExactAudioCopy v0.99pb5"PERFORMER "The Fray"TITLE "You Found Me"FILE "01. The Fray - You Found Me.wav" WAVE TRACK 01 AUDIO TITLE "You Found Me" PERFORMER "The Fray" INDEX 01 00:00:00 TRACK 02 AUDIO TITLE "The Great Beyond" PERFORMER "The Fray" INDEX 00 04:02:51FILE "02. The Fray - The Great Beyond.wav" WAVE INDEX 01 00:00:00
Издатель (лейбл): Epic
01. Syndicate - 3:22
02. Absolute - 3:49
03. You Found Me - 4:04
04. Say When - 5:05
05. Never Say Never - 4:19
06. Where the Story Ends - 3:57
07. Enough for Now - 4:17
08. Ungodly Hour - 5:07
09. We Build Then We Break - 3:48
10. Happiness - 5:24
  
Exact Audio Copy V0.99 prebeta 5 from 4. May 2009

EAC extraction logfile from 1. September 2011, 21:58

The Fray / The Fray

Used drive : PIONEER DVD-RW DVR-118L Adapter: 2 ID: 0

Read mode : SecureUtilize accurate stream : YesDefeat audio cache : YesMake use of C2 pointers : No

Read offset correction : 6Overread into Lead-In and Lead-Out : NoFill up missing offset samples with silence : YesDelete leading and trailing silent blocks : NoNull samples used in CRC calculations : YesUsed interface : Native Win32 interface for Win NT & 2000Gap handling : Appended to previous track

Used output format : User Defined EncoderSelected bitrate : 128 kBit/sQuality : HighAdd ID3 tag : NoCommand line compressor : C:\Program Files (x86)\Exact Audio Copy\Flac\flac.exeAdditional command line options : -8 -V -T "ARTIST=%a" -T "TITLE=%t" -T "ALBUM=%g" -T "DATE=%y"-T "TRACKNUMBER=%n" -T "GENRE=%m" -T "COMMENT=EAC FLAC -8" %s

TOC of the extracted CD

Track | Start | Length | Start sector | End sector --------------------------------------------------------- 1 | 0:00.00 | 3:32.03 | 0 | 15902 2 | 3:32.03 | 3:49.25 | 15903 | 33102 3 | 7:21.28 | 4:03.55 | 33103 | 51382 4 | 11:25.08 | 5:04.47 | 51383 | 74229 5 | 16:29.55 | 4:18.74 | 74230 | 93653 6 | 20:48.54 | 3:57.17 | 93654 | 111445 7 | 24:45.71 | 4:17.35 | 111446 | 130755 8 | 29:03.31 | 5:07.22 | 130756 | 153802 9 | 34:10.53 | 3:48.09 | 153803 | 170911 10 | 37:58.62 | 5:24.36 | 170912 | 195247

Track 1

Filename D:\Торрент\The Fray\2009 - The Fray\01. The Fray - Syndicate.wav

Pre-gap length 0:00:02.00

Peak level 100.0 % Track quality 100.0 % Test CRC 39EF77E5 Copy CRC 39EF77E5 Accurately ripped (confidence 50) [112C688D] Copy OK

Track 2

Filename D:\Торрент\The Fray\2009 - The Fray\02. The Fray - Absolute.wav

Pre-gap length 0:00:02.06

Peak level 99.3 % Track quality 100.0 % Test CRC ABD3CFBB Copy CRC ABD3CFBB Accurately ripped (confidence 50) [0E4D36FB] Copy OK

Track 3

Filename D:\Торрент\The Fray\2009 - The Fray\03. The Fray - You Found Me.wav

Pre-gap length 0:00:02.25

Peak level 100.0 % Track quality 99.9 % Test CRC F7C3E0E3 Copy CRC F7C3E0E3 Accurately ripped (confidence 50) [97626310] Copy OK

Track 4

Filename D:\Торрент\The Fray\2009 - The Fray\04. The Fray - Say When.wav

Peak level 100.0 % Track quality 100.0 % Test CRC CC63636E Copy CRC CC63636E Accurately ripped (confidence 50) [7A4CCE14] Copy OK

Track 5

Filename D:\Торрент\The Fray\2009 - The Fray\05. The Fray - Never Say Never.wav

Pre-gap length 0:00:02.98

Peak level 100.0 % Track quality 99.9 % Test CRC 6F1E8659 Copy CRC 6F1E8659 Accurately ripped (confidence 50) [45FC2572] Copy OK

Track 6

Filename D:\Торрент\The Fray\2009 - The Fray\06. The Fray - Where The Story Ends.wav

Pre-gap length 0:00:02.37

Peak level 100.0 % Track quality 100.0 % Test CRC FC325CDA Copy CRC FC325CDA Accurately ripped (confidence 50) [4B7D8CAA] Copy OK

Track 7

Filename D:\Торрент\The Fray\2009 - The Fray\07. The Fray - Enough For Now.wav

Peak level 100.0 % Track quality 100.0 % Test CRC 13BD0944 Copy CRC 13BD0944 Accurately ripped (confidence 50) [0A6541C6] Copy OK

Track 8

Filename D:\Торрент\The Fray\2009 - The Fray\08. The Fray - Ungodly Hour.wav

Pre-gap length 0:00:02.90

Peak level 98.8 % Track quality 100.0 % Test CRC 0EC4DE07 Copy CRC 0EC4DE07 Accurately ripped (confidence 50) [15B5C934] Copy OK

Track 9

Filename D:\Торрент\The Fray\2009 - The Fray\09. The Fray - We Build Then We Break.wav

Pre-gap length 0:00:02.77

Peak level 100.0 % Track quality 99.9 % Test CRC 3AD855F3 Copy CRC 3AD855F3 Accurately ripped (confidence 50) [DF449277] Copy OK

Track 10

Filename D:\Торрент\The Fray\2009 - The Fray\10. The Fray - Happiness.wav

Peak level 99.0 % Track quality 100.0 % Test CRC 0D688BE3 Copy CRC 0D688BE3 Accurately ripped (confidence 50) [49040610] Copy OK

All tracks accurately ripped

No errors occurred

End of status report
  
REM GENRE RockREM DATE 2009REM DISCID 7E0A2B0AREM COMMENT "ExactAudioCopy v0.99pb5"PERFORMER "The Fray"TITLE "The Fray"FILE "01. The Fray - Syndicate.wav" WAVE TRACK 01 AUDIO TITLE "Syndicate" PERFORMER "The Fray" INDEX 01 00:00:00 TRACK 02 AUDIO TITLE "Absolute" PERFORMER "The Fray" INDEX 00 03:29:73FILE "02. The Fray - Absolute.wav" WAVE INDEX 01 00:00:00 TRACK 03 AUDIO TITLE "You Found Me" PERFORMER "The Fray" INDEX 00 03:47:06FILE "03. The Fray - You Found Me.wav" WAVE INDEX 01 00:00:00FILE "04. The Fray - Say When.wav" WAVE TRACK 04 AUDIO TITLE "Say When" PERFORMER "The Fray" INDEX 01 00:00:00 TRACK 05 AUDIO TITLE "Never Say Never" PERFORMER "The Fray" INDEX 00 05:01:48FILE "05. The Fray - Never Say Never.wav" WAVE INDEX 01 00:00:00 TRACK 06 AUDIO TITLE "Where The Story Ends" PERFORMER "The Fray" INDEX 00 04:16:46FILE "06. The Fray - Where The Story Ends.wav" WAVE INDEX 01 00:00:00FILE "07. The Fray - Enough For Now.wav" WAVE TRACK 07 AUDIO TITLE "Enough For Now" PERFORMER "The Fray" INDEX 01 00:00:00 TRACK 08 AUDIO TITLE "Ungodly Hour" PERFORMER "The Fray" INDEX 00 04:14:42FILE "08. The Fray - Ungodly Hour.wav" WAVE INDEX 01 00:00:00 TRACK 09 AUDIO TITLE "We Build Then We Break" PERFORMER "The Fray" INDEX 00 05:04:39FILE "09. The Fray - We Build Then We Break.wav" WAVE INDEX 01 00:00:00FILE "10. The Fray - Happiness.wav" WAVE TRACK 10 AUDIO TITLE "Happiness" PERFORMER "The Fray" INDEX 01 00:00:00
Издатель (лейбл): Epic
01. Heartbeat - 03:40
02. The Fighter - 04:20
03. Turn Me On - 03:02
04. Run for Your Life - 03:58
05. The Wind - 04:14
06. 1961 - 03:54
07. I Can Barely Say - 04:20
08. Munich - 03:57
09. Here We Are - 03:31
10. 48 to Go - 03:22
11. Rainy Zurich - 03:48
12. Be Still - 02:48
  
Exact Audio Copy V1.0 beta 3 from 29. August 2011

EAC extraction logfile from 24. June 2012, 21:33

The Fray / Scars & Stories

Used drive : PIONEER DVD-RW DVR-118L Adapter: 2 ID: 0

Read mode : SecureUtilize accurate stream : YesDefeat audio cache : YesMake use of C2 pointers : No

Read offset correction : 6Overread into Lead-In and Lead-Out : NoFill up missing offset samples with silence : YesDelete leading and trailing silent blocks : NoNull samples used in CRC calculations : YesUsed interface : Native Win32 interface for Win NT & 2000Gap handling : Appended to previous track

Used output format : User Defined EncoderSelected bitrate : 1024 kBit/sQuality : HighAdd ID3 tag : NoCommand line compressor : C:\Program Files (x86)\Exact Audio Copy\Flac\flac.exeAdditional command line options : -8 -V -T "ARTIST=%artist%" -T "TITLE=%title%" -T "ALBUM=%albumtitle%"-T "DATE=%year%" -T "TRACKNUMBER=%tracknr%" -T "GENRE=%genre%" -T "PERFORMER=%albuminterpret%"-T "COMPOSER=%composer%" %haslyrics%--tag-from-file=LYRICS="%lyricsfile%"%haslyrics%-T "ALBUMARTIST=%albumartist%" -T "DISCNUMBER=%cdnumber%" -T "TOTALDISCS=%totalcds%"-T "TOTALTRACKS=%numtracks%" -T "COMMENT=%comment%" %source% -o %dest%

TOC of the extracted CD

Track | Start | Length | Start sector | End sector --------------------------------------------------------- 1 | 0:00.00 | 3:40.52 | 0 | 16551 2 | 3:40.52 | 4:20.08 | 16552 | 36059 3 | 8:00.60 | 3:02.44 | 36060 | 49753 4 | 11:03.29 | 3:58.70 | 49754 | 67673 5 | 15:02.24 | 4:14.38 | 67674 | 86761 6 | 19:16.62 | 3:54.06 | 86762 | 104317 7 | 23:10.68 | 4:20.30 | 104318 | 123847 8 | 27:31.23 | 3:57.20 | 123848 | 141642 9 | 31:28.43 | 3:31.57 | 141643 | 157524 10 | 35:00.25 | 3:22.55 | 157525 | 172729 11 | 38:23.05 | 3:48.34 | 172730 | 189863 12 | 42:11.39 | 2:48.64 | 189864 | 202527

Track 1

Filename D:\CDRip\01 - Heartbeat.wav

Pre-gap length 0:00:02.00

Peak level 97.7 % Extraction speed 1.0 X Track quality 100.0 % Test CRC D5687D52 Copy CRC D5687D52 Accurately ripped (confidence 4) [9E8F8B6B] (AR v1) Copy OK

Track 2

Filename D:\CDRip\02 - The Fighter.wav

Peak level 97.7 % Extraction speed 1.2 X Track quality 100.0 % Test CRC D3C30D57 Copy CRC D3C30D57 Accurately ripped (confidence 4) [CCA206A2] (AR v1) Copy OK

Track 3

Filename D:\CDRip\03 - Turn Me On.wav

Peak level 97.7 % Extraction speed 1.0 X Track quality 99.9 % Test CRC F80E6067 Copy CRC F80E6067 Accurately ripped (confidence 4) [0938FE87] (AR v1) Copy OK

Track 4

Filename D:\CDRip\04 - Run For Your Life.wav

Peak level 97.7 % Extraction speed 1.4 X Track quality 100.0 % Test CRC AD91835E Copy CRC AD91835E Accurately ripped (confidence 4) [7BA37C40] (AR v1) Copy OK

Track 5

Filename D:\CDRip\05 - The Wind.wav

Peak level 97.7 % Extraction speed 1.5 X Track quality 100.0 % Test CRC 57150D97 Copy CRC 57150D97 Accurately ripped (confidence 4) [734579C9] (AR v1) Copy OK

Track 6

Filename D:\CDRip\06 - 1961.wav

Peak level 97.7 % Extraction speed 1.5 X Track quality 100.0 % Test CRC 1CEDB238 Copy CRC 1CEDB238 Accurately ripped (confidence 4) [4BCA6129] (AR v1) Copy OK

Track 7

Filename D:\CDRip\07 - I Can Barely Say.wav

Peak level 97.7 % Extraction speed 1.7 X Track quality 100.0 % Test CRC C1D991BA Copy CRC C1D991BA Accurately ripped (confidence 4) [ECF0903F] (AR v1) Copy OK

Track 8

Filename D:\CDRip\08 - Munich.wav

Peak level 97.7 % Extraction speed 1.7 X Track quality 100.0 % Test CRC 1E7AFD8D Copy CRC 1E7AFD8D Accurately ripped (confidence 4) [59415D1F] (AR v1) Copy OK

Track 9

Filename D:\CDRip\09 - Here We Are.wav

Peak level 97.7 % Extraction speed 1.8 X Track quality 100.0 % Test CRC A1015D61 Copy CRC A1015D61 Accurately ripped (confidence 4) [626F3EAD] (AR v1) Copy OK

Track 10

Filename D:\CDRip\10 - 48 To Go.wav

Peak level 97.7 % Extraction speed 1.8 X Track quality 100.0 % Test CRC 0C4E686F Copy CRC 0C4E686F Accurately ripped (confidence 4) [41C668F7] (AR v1) Copy OK

Track 11

Filename D:\CDRip\11 - Rainy Zurich.wav

Peak level 97.7 % Extraction speed 1.9 X Track quality 100.0 % Test CRC B88EDFA9 Copy CRC B88EDFA9 Accurately ripped (confidence 4) [22BBB9E2] (AR v1) Copy OK

Track 12

Filename D:\CDRip\12 - Be Still.wav

Peak level 97.6 % Extraction speed 1.9 X Track quality 100.0 % Test CRC E6A88545 Copy CRC E6A88545 Accurately ripped (confidence 4) [A40DB260] (AR v1) Copy OK

All tracks accurately ripped

No errors occurred

End of status report

---- CUETools DB Plugin V2.1.3

[CTDB TOCID: u92x.Txd0gn0wo2Ujb45qKl9yFA-] found, Submit result: u92x.Txd0gn0wo2Ujb45qKl9yFA- has been confirmed[fcdb41dd] (19/20) Accurately ripped[7b1a1ca7] (01/20) No match

==== Log checksum D8B6A12453B00E2D4619C28D72FB12D38F1BE910531C07C33BA9B4F6DE99365F ====
  
REM GENRE RockREM DATE 2011REM DISCID 8F0A8C0CREM COMMENT "ExactAudioCopy v1.0b3"PERFORMER "The Fray"TITLE "Scars & Stories"FILE "01 - Heartbeat.wav" WAVE TRACK 01 AUDIO TITLE "Heartbeat" PERFORMER "The Fray" ISRC H2KM11105418 INDEX 01 00:00:00FILE "02 - The Fighter.wav" WAVE TRACK 02 AUDIO TITLE "The Fighter" PERFORMER "The Fray" ISRC H2KM11106489 INDEX 01 00:00:00FILE "03 - Turn Me On.wav" WAVE TRACK 03 AUDIO TITLE "Turn Me On" PERFORMER "The Fray" ISRC H2KM11106489 INDEX 01 00:00:00FILE "04 - Run For Your Life.wav" WAVE TRACK 04 AUDIO TITLE "Run For Your Life" PERFORMER "The Fray" ISRC H2KM11106491 INDEX 01 00:00:00FILE "05 - The Wind.wav" WAVE TRACK 05 AUDIO TITLE "The Wind" PERFORMER "The Fray" ISRC H2KM11106492 INDEX 01 00:00:00FILE "06 - 1961.wav" WAVE TRACK 06 AUDIO TITLE "1961" PERFORMER "The Fray" ISRC H2KM11106493 INDEX 01 00:00:00FILE "07 - I Can Barely Say.wav" WAVE TRACK 07 AUDIO TITLE "I Can Barely Say" PERFORMER "The Fray" ISRC H2KM11106494 INDEX 01 00:00:00FILE "08 - Munich.wav" WAVE TRACK 08 AUDIO TITLE "Munich" PERFORMER "The Fray" ISRC H2KM11106495 INDEX 01 00:00:00FILE "09 - Here We Are.wav" WAVE TRACK 09 AUDIO TITLE "Here We Are" PERFORMER "The Fray" ISRC H2KM11106496 INDEX 01 00:00:00FILE "10 - 48 To Go.wav" WAVE TRACK 10 AUDIO TITLE "48 To Go" PERFORMER "The Fray" ISRC H2KM11106497 INDEX 01 00:00:00FILE "11 - Rainy Zurich.wav" WAVE TRACK 11 AUDIO TITLE "Rainy Zurich" PERFORMER "The Fray" ISRC H2KM11106498 INDEX 01 00:00:00FILE "12 - Be Still.wav" WAVE TRACK 12 AUDIO TITLE "Be Still" PERFORMER "The Fray" ISRC H2KM11106499 INDEX 01 00:00:00


Трекер:  [ 25-Июн-2012 20:28 ]

  

Скачать .torrent

Размер .torrent файла 31 KB


Размер: 1.73 GB
Хэш (hash) релиза: d0a1907d10ddc92392bf678257cfdbcc6fd50e80

Еще никто не оставлял запись к записи скачать торрент The Fray - Коллекция: 2003-2012 . Будь первым!

!Обратная связь