Скачать через торрент музыку Machiavel - Mechanical Moonbeams бесплатно без регистрации torrent

Если у вас наблюдаются проблемы со скриншотами, переходом по ссылками, скачиванием торрентов - проблемы в блокировщике рекламы AdBlock. #хорошегоДня!


Статистика раздачи
Размер:  355 MB   |    Зарегистрирован:  5 лет 4 месяца   |    .torrent скачан:  12 раз   |   
Раздают:  1  
   
Загрузка...
 
Автор Сообщение

Umakiro

avatar Umakiro


Machiavel - Mechanical Moonbeams

Жанр: Progressive Rock
Страна-производитель диска: Великобритания
Год издания: 2010 (1978)
Издатель (лейбл): Esoteric Records
Номер по каталогу: ECLEC 2225
Страна: Бельгия
Аудиокодек: APE (*.ape)
Тип рипа: image+.cue
Битрейт аудио: lossless
Продолжительность: 53:41
Источник (релизер): SORIA (hqshare)
Наличие сканов в содержимом раздачи: да

Треклист:
01. Beyond the Silence (6:10)
02. Summon Up Your Street (5:03)
03. Rope Dancer (3:40)
04. Rebirth (7:10)
05. After the Crop (7:55)
06. Mary (4:10)
07. The Fifth Season (7:25)
08. Wind of Life (6:12)
09. I'm Not a Loser (5:42)

Состав:
Roland de Greef - bass
Mario Guccio - voice
Marc Ysaye - voice, drums
Jean Paul Devaux - guitarist
Albert Letecheur - keyboards
  
Exact Audio Copy V1.0 beta 3 from 29. August 2011

EAC extraction logfile from 21. June 2012, 21:50

Machiavel / Mechanical Moonbeams

Used drive : Optiarc DVD RW AD-7173A Adapter: 4 ID: 1

Read mode : SecureUtilize accurate stream : YesDefeat audio cache : YesMake use of C2 pointers : No

Read offset correction : 48Overread into Lead-In and Lead-Out : NoFill up missing offset samples with silence : YesDelete leading and trailing silent blocks : NoNull samples used in CRC calculations : YesUsed interface : Native Win32 interface for Win NT & 2000

Used output format : Internal WAV RoutinesSample format : 44.100 Hz; 16 Bit; Stereo

TOC of the extracted CD

Track | Start | Length | Start sector | End sector --------------------------------------------------------- 1 | 0:00.03 | 6:11.53 | 3 | 27880 2 | 6:11.56 | 5:06.50 | 27881 | 50880 3 | 11:18.31 | 3:40.24 | 50881 | 67404 4 | 14:58.55 | 7:14.52 | 67405 | 100006 5 | 22:13.32 | 7:55.61 | 100007 | 135692 6 | 30:09.18 | 4:09.34 | 135693 | 154401 7 | 34:18.52 | 7:25.15 | 154402 | 187791 8 | 41:43.67 | 6:13.65 | 187792 | 215831 9 | 47:57.57 | 5:43.32 | 215832 | 241588

Range status and errors

Selected range

Filename E:\+EAC+\Machiavel - Mechanical Moonbeams.wav

Peak level 99.4 % Extraction speed 1.9 X Range quality 99.9 % Test CRC 2E9A2435 Copy CRC 2E9A2435 Copy OK

No errors occurred

End of status report

---- CUETools DB Plugin V2.1.3

[CTDB TOCID: F2G_bj4O6Wm.59vl72NpSYe2Tw8-] disk not present in database, Submit result: discs with pregaps not supported in this protocol version

==== Log checksum 44A99FDA308076C9F9F896DC627BFC67FC17217247DA898A8A05E333DA71F76B ====
  
REM GENRE "Progressive Rock"REM DATE 1978REM DISCID 6B0C9509REM COMMENT "ExactAudioCopy v1.0b3"PERFORMER "Machiavel"TITLE "Mechanical Moonbeams"FILE "Machiavel - Mechanical Moonbeams.wav" WAVE TRACK 01 AUDIO TITLE "Beyond The Silence" PERFORMER "Machiavel" INDEX 00 00:00:00 INDEX 01 00:00:03 TRACK 02 AUDIO TITLE "Summon Up Your Strenght" PERFORMER "Machiavel" INDEX 01 06:11:56 TRACK 03 AUDIO TITLE "Rope Dancer" PERFORMER "Machiavel" INDEX 01 11:18:31 TRACK 04 AUDIO TITLE "Rebirth" PERFORMER "Machiavel" INDEX 01 14:58:55 TRACK 05 AUDIO TITLE "After The Crop" PERFORMER "Machiavel" INDEX 01 22:13:32 TRACK 06 AUDIO TITLE "Mary" PERFORMER "Machiavel" INDEX 01 30:09:18 TRACK 07 AUDIO TITLE "The Fifth Season" PERFORMER "Machiavel" INDEX 01 34:18:52 TRACK 08 AUDIO TITLE "Wind Of Life (Bonus Track)" PERFORMER "Machiavel" INDEX 01 41:43:67 TRACK 09 AUDIO TITLE "I'm Not A Loser (Bonus Track)" PERFORMER "Machiavel" INDEX 01 47:57:57
This is probably their most symphonic album. A very good introduction to their catalogue if you want to discover this side of their work (which is the more interesting).
The mood is set with "Beyond The Silence". A very strong opener featuring bombastic keyboards and a very dynamic rhythmic section. Great song, indeed. "Summon Up The Strenght" is a bit more hectic. Machiavel will release several songs of this genre. Theme and rhythm changes are nice, but in this song it is a bit loose. Sounds as a collage of different short tunes. Keyboards are Supertramp-oriented (this was already to be noticed in the song "Jester"). The song ends up almost hard-rocking (which is not to dislike me).
Now, "Rope Dancer". The first Belgian hit from Machiavel. They will release several popular songs (amongst the Belgian fans). Each of them will have a good airing on Begian radios; and even if some of you might be irritated; I just like them a bunch. I guess that the very melancholic mood, some souvenirs from dancing parties... make this song special to me. So, you'll either press next or listen to it again after the first hearing. I hope the latter will be your choice.
"Rebirth" is not so pleasant. After an almost folkish, medieval intro for over two minutes, the song finally kicks a bit. But the melody is not strong, at times Machiavel will get an ELP-ish sound which is not convincing. The Banks-oriented finale ("Cinema Show) is very pleasant though.
"After The Crop" is probably the heights of their prog production. Again, the typical Machivel structure is there : complex rhythm changes thoughout these 7'52". Crescendo construction etc. It is just a beautiful song. Emotional and gentle during the intro, sounding as "Rope Dancer" a little later, and finally a true rock song during the second part. Another highlight.
Machiavel remains in the Genesis territory with "Mary", a sweet ballad full of romanticism. Nice acoustic guitar and some flute will automatically bring you back to "Trespass". But, that's fine with me. A tranquil moment. An apetizer for the closing number : "The Fifth Season" which has the classic Machiavel signature described earlier on. Another very good song to close this album.
This album is on par with "Jester". Although I prefer "Jester" by an inch, I will rate this album with four stars as well. Both works are recomended. Give them a try, you won't be deceived. That's a promise.
-- ZowieZiggy
Раздача будет утром.

Трекер:  [ 25-Июн-2012 20:35 ]

  

Скачать .torrent

Размер .torrent файла 15 KB


Размер: 355 MB
Хэш (hash) релиза: 9351b57665c2369d1a7a29887124371999801b35

Еще никто не оставлял запись к записи скачать торрент Machiavel - Mechanical Moonbeams . Будь первым!

!Обратная связь