Скачать через торрент музыку The Morning After - Legacy - 2011, APE бесплатно без регистрации torrent

Если у вас наблюдаются проблемы со скриншотами, переходом по ссылками, скачиванием торрентов - проблемы в блокировщике рекламы AdBlock. #хорошегоДня!


Статистика раздачи
Размер:  448 MB   |    Зарегистрирован:  5 лет 4 месяца   |    .torrent скачан:  18 раз   |   
Раздают:  1  
   
Загрузка...
 
Автор Сообщение

Umakiro

avatar Umakiro


The Morning After / Legacy

Жанр: Melodic Hard Rock / Modern Rock
Год издания: 2011
Издатель (лейбл): Rising Records
Номер по каталогу: Rising CD090
Страна: United Kingdom
Аудиокодек: APE (*.ape)
Тип рипа: image+.cue
Битрейт аудио: lossless
Продолжительность: 1:01:53
Источник (релизер): moole.ru (GriffonNest)
Наличие сканов в содержимом раздачи: да
Треклист:
01. Legacy (1:39)
02. Into The Fire (3:57)
03. Limit (4:20)
04. America (4:28)
05. The Witch Is On My Back (4:05)
06. Over The Wire (3:52)
07. Streams Of Stars (10:33)
08. These Hills Have Eyes (3:39)
09. Powerdrive (3:32)
10. Rest In Pieces (4:52)
11. Nightmare Planet (4:49)
12. Seasons (6:39)
13. I Walk With Giants (5:28)
  
Exact Audio Copy V0.99 prebeta 5 from 4. May 2009

EAC extraction logfile from 8. January 2012, 8:16

The Morning After / Legacy

Used drive : HL-DT-STDVDRAM GH24LS70 Adapter: 1 ID: 1

Read mode : SecureUtilize accurate stream : YesDefeat audio cache : YesMake use of C2 pointers : No

Read offset correction : 667Overread into Lead-In and Lead-Out : NoFill up missing offset samples with silence : YesDelete leading and trailing silent blocks : NoNull samples used in CRC calculations : YesUsed interface : Installed external ASPI interface

Used output format : Internal WAV RoutinesSample format : 44.100 Hz; 16 Bit; Stereo

TOC of the extracted CD

Track | Start | Length | Start sector | End sector --------------------------------------------------------- 1 | 0:00.00 | 1:38.74 | 0 | 7423 2 | 1:38.74 | 3:56.69 | 7424 | 25192 3 | 5:35.68 | 4:20.00 | 25193 | 44692 4 | 9:55.68 | 4:27.50 | 44693 | 64767 5 | 14:23.43 | 4:04.68 | 64768 | 83135 6 | 18:28.36 | 3:52.10 | 83136 | 100545 7 | 22:20.46 | 10:32.49 | 100546 | 147994 8 | 32:53.20 | 3:38.54 | 147995 | 164398 9 | 36:31.74 | 3:32.28 | 164399 | 180326 10 | 40:04.27 | 4:51.52 | 180327 | 202203 11 | 44:56.04 | 4:49.19 | 202204 | 223897 12 | 49:45.23 | 6:38.70 | 223898 | 253817 13 | 56:24.18 | 5:28.33 | 253818 | 278450

Range status and errors

Selected range

Filename E:\Rip by GriffonNest\The Morning After - Legacy (2011)\Legacy.wav

Peak level 100.0 % Range quality 100.0 % Copy CRC F5889EDC Copy OK

No errors occurred

End of status report


Трекер:  [ 25-Июн-2012 20:35 ]

  

Скачать .torrent

Размер .torrent файла 18 KB


Размер: 448 MB
Хэш (hash) релиза: c7ff4357e099f241fcbdbdd2c8113ccac92fb4d4

Еще никто не оставлял запись к записи скачать торрент The Morning After - Legacy - 2011, APE . Будь первым!

!Обратная связь