Скачать через торрент музыку Achim Reichel - Melancholie Und Sturmflut бесплатно без регистрации torrent

Если у вас наблюдаются проблемы со скриншотами, переходом по ссылками, скачиванием торрентов - проблемы в блокировщике рекламы AdBlock. #хорошегоДня!


Статистика раздачи
Размер:  336 MB   |    Зарегистрирован:  5 лет 1 месяц   |    .torrent скачан:  24 раза   |   
Раздают:  1  
   
Загрузка...
 
Автор Сообщение

Galfimbul

avatar Galfimbul


Achim Reichel / Melancholie Und Sturmflut

Жанр: Pop Rock
Страна-производитель диска: Germany
Год издания: 2009
Издатель (лейбл): Tangram
Номер по каталогу: 918712
Страна: Germany
Аудиокодек: APE (*.ape)
Тип рипа: image+.cue
Битрейт аудио: lossless
Продолжительность: 00:51:22
Источник (релизер): avax
Наличие сканов в содержимом раздачи: нет
Треклист:
01 Made In Paradise 4:07
02 Auf Der Rolltreppe 4:58
03 Kuddel Daddel Du 4:47
04 Die Zauberin 4:29
05 Aloha Heja He 4:09
06 Sturmflut 3:43
07 Robert Der Roboter 3:49
08 Melancholie 3:45
09 Karawane Ins Glück 3:32
10 Das Lied Von Susi Und Johnny 5:18
11 Mein Herz Ist Ein UFO 3:50
12 Auf Der Rolltreppe (Live '92) 4:45 Bonus Track
  
Exact Audio Copy V1.0 beta 2 from 29. April 2011

EAC extraction logfile from 23. April 2012, 18:02

Achim Reichel / Melancholie Und Sturmflut

Used drive : PIONEER BD-RW BDR-206 Adapter: 2 ID: 3

Read mode : SecureUtilize accurate stream : YesDefeat audio cache : YesMake use of C2 pointers : No

Read offset correction : 667Overread into Lead-In and Lead-Out : NoFill up missing offset samples with silence : YesDelete leading and trailing silent blocks : NoNull samples used in CRC calculations : YesUsed interface : Native Win32 interface for Win NT & 2000

Used output format : User Defined EncoderSelected bitrate : 896 kBit/sQuality : HighAdd ID3 tag : NoCommand line compressor : C:\Program Files\FLAC\flac.exeAdditional command line options : -5 -T "Artist=%artist%" -T "Title=%title%" -T "Album=%albumtitle%" -T "Date=%year%" -T "Tracknumber=%tracknr%" -T "Genre=%genre%" %source% -o %dest%

TOC of the extracted CD

Track | Start | Length | Start sector | End sector --------------------------------------------------------- 1 | 0:00.00 | 4:10.26 | 0 | 18775 2 | 4:10.26 | 4:59.55 | 18776 | 41255 3 | 9:10.06 | 4:47.66 | 41256 | 62846 4 | 13:57.72 | 4:30.48 | 62847 | 83144 5 | 18:28.45 | 4:03.11 | 83145 | 101380 6 | 22:31.56 | 3:44.30 | 101381 | 118210 7 | 26:16.11 | 3:50.51 | 118211 | 135511 8 | 30:06.62 | 3:46.31 | 135512 | 152492 9 | 33:53.18 | 3:33.46 | 152493 | 168513 10 | 37:26.64 | 5:19.42 | 168514 | 192480 11 | 42:46.31 | 3:50.68 | 192481 | 209798 12 | 46:37.24 | 4:44.50 | 209799 | 231148

Range status and errors

Selected range

Filename I:\=== VINYL RIPS ===\=== EAC===\X FRESH RIP\Achim Reichel - Melancholie Und Sturmflut.wav

Peak level 98.8 % Extraction speed 1.7 X Range quality 99.9 % Test CRC B6AC9817 Copy CRC B6AC9817 Copy OK

No errors occurred

AccurateRip summary

Track 1 not present in databaseTrack 2 accurately ripped (confidence 1) [5C118849] (AR v2)Track 3 not present in databaseTrack 4 accurately ripped (confidence 1) [D3CB3315] (AR v2)Track 5 not present in databaseTrack 6 accurately ripped (confidence 1) [99C9FA6B] (AR v2)Track 7 accurately ripped (confidence 1) [6CE1184C] (AR v2)Track 8 not present in databaseTrack 9 accurately ripped (confidence 1) [84B0333C] (AR v2)Track 10 accurately ripped (confidence 1) [A91DE2C8] (AR v2)Track 11 accurately ripped (confidence 1) [BBD7FCD6] (AR v2)Track 12 not present in database

7 track(s) accurately ripped 5 track(s) not present in the AccurateRip database

Some tracks could not be verified as accurate

End of status report

==== Log checksum D9FCD3B6CCC05430FFAD8DC089500D3102B442F63B6FAE1534A4E382ABB68535 ====
  
AUDIOCHECKER v2.0 beta (build 457) - by Dester - <a href="mailto:opdester@freemail.hu" class="postLink">opdester@freemail.hu</a>~~~~~~~~~~~~~~~~~~~~~~~~~~~~~~~~~~-=== DO NOT EDIT THIS FILE! ===-

Path: ...\Achim Reichel - Melancholie Und Sturmflut 1991 {Germany 2009}

1 -=- Achim Reichel - Melancholie Und Sturmflut.wav -=- CDDA (100%)

108601412


Трекер:  [ 22-Июн-2012 17:04 ]

  

Скачать .torrent

Размер .torrent файла 14 KB


Размер: 336 MB
Хэш (hash) релиза: d2ada0025e6849991ac08035ffdb8fa676c98fa7

Еще никто не оставлял запись к записи скачать торрент Achim Reichel - Melancholie Und Sturmflut . Будь первым!

!Обратная связь