Скачать через торрент музыку Machiavel - Jester бесплатно без регистрации torrent

Если у вас наблюдаются проблемы со скриншотами, переходом по ссылками, скачиванием торрентов - проблемы в блокировщике рекламы AdBlock. #хорошегоДня!


Статистика раздачи
Размер:  313 MB   |    Зарегистрирован:  5 лет 4 месяца   |    .torrent скачан:  18 раз   |   
Раздают:  1  
   
Загрузка...
 
Автор Сообщение

Galfimbul

avatar Galfimbul


Machiavel - Jester

Жанр: Progressive Rock
Страна-производитель диска: Великобритания
Год издания: 2010 (1977)
Издатель (лейбл): Esoteric Records
Номер по каталогу: ECLEC 2224
Страна: Бельгия
Аудиокодек: APE (*.ape)
Тип рипа: image+.cue
Битрейт аудио: lossless
Продолжительность: 50:23
Источник (релизер): SORIA (hqshare)
Наличие сканов в содержимом раздачи: да

Треклист:
01. Wisdom (6:02)
02. Sparkling Jaw (7:07)
03. Moments (3:20)
04. In the Reign of Great Pollution (6:55)
05. The Jester (5:28)
06. Mr. Street Fair (7:57)
07. Rock, Sea and Tree (9:22)
Bonus tracks:
08. The Birds Are Gone (1:51)
09. I'm Nowhere (2:24)

Состав:
Albert Letecheur - grand piano, electric piano, honky-tonk piano, harpsichord, string ensemble, Mellotron, synthesizers, tubular bells, glockenspiel
Roland De Greef - bass, cellobas, 6 & 12 string acoustic guitars, carillon, bells, whistle, comb, tape effects, vocals
Marc Ysaye - drums, vocals, tambourine, maracas, gong, wood blocks, glass blocks, broken glass, bell tree, sleigh bells, flexitone, nut cracker
Mario Guccio - vocals, flute, saxophone, clarinet
Jean-Paul Devaux - electric guitar, 6 & 12 string acoustic guitars, vocals

Recorded at D.E.S. Studios, Brussels.
  
Exact Audio Copy V1.0 beta 3 from 29. August 2011

EAC extraction logfile from 20. June 2012, 22:49

Machiavel / Jester

Used drive : Optiarc DVD RW AD-7173A Adapter: 4 ID: 1

Read mode : SecureUtilize accurate stream : YesDefeat audio cache : YesMake use of C2 pointers : No

Read offset correction : 48Overread into Lead-In and Lead-Out : NoFill up missing offset samples with silence : YesDelete leading and trailing silent blocks : NoNull samples used in CRC calculations : YesUsed interface : Native Win32 interface for Win NT & 2000

Used output format : Internal WAV RoutinesSample format : 44.100 Hz; 16 Bit; Stereo

TOC of the extracted CD

Track | Start | Length | Start sector | End sector --------------------------------------------------------- 1 | 0:00.00 | 6:01.62 | 0 | 27136 2 | 6:01.62 | 7:06.47 | 27137 | 59133 3 | 13:08.34 | 3:19.53 | 59134 | 74111 4 | 16:28.12 | 6:54.52 | 74112 | 105213 5 | 23:22.64 | 5:27.68 | 105214 | 129806 6 | 28:50.57 | 7:57.05 | 129807 | 165586 7 | 36:47.62 | 9:21.52 | 165587 | 207713 8 | 46:09.39 | 1:50.40 | 207714 | 216003 9 | 48:00.04 | 2:23.45 | 216004 | 226773

Range status and errors

Selected range

Filename E:\+EAC+\Machiavel - Jester.wav

Peak level 99.4 % Extraction speed 1.8 X Range quality 99.9 % Test CRC 9AF5545A Copy CRC 9AF5545A Copy OK

No errors occurred

End of status report

---- CUETools DB Plugin V2.1.3

[CTDB TOCID: VyOLEsMBEwnRPaX_6i5LIzZkmKU-] found, Submit result: already submitted[03c8032b] (1/1) Accurately ripped

==== Log checksum 992EAAE44FCF3134636B3E79C4F8DF13F98B49F619180189538AF31DB86749EC ====
  
REM GENRE "Progressive Rock"REM DATE 1977REM DISCID 780BCF09REM COMMENT "ExactAudioCopy v1.0b3"PERFORMER "Machiavel"TITLE "Jester"FILE "Machiavel - Jester.wav" WAVE TRACK 01 AUDIO TITLE "Wisdom" PERFORMER "Machiavel" INDEX 01 00:00:00 TRACK 02 AUDIO TITLE "Sparkling Jaw" PERFORMER "Machiavel" INDEX 01 06:01:62 TRACK 03 AUDIO TITLE "Moments" PERFORMER "Machiavel" INDEX 01 13:08:34 TRACK 04 AUDIO TITLE "In The Reign Of Queen Pollution" PERFORMER "Machiavel" INDEX 01 16:28:12 TRACK 05 AUDIO TITLE "The Jester" PERFORMER "Machiavel" INDEX 01 23:22:64 TRACK 06 AUDIO TITLE "Mr. Street Fair" PERFORMER "Machiavel" INDEX 01 28:50:57 TRACK 07 AUDIO TITLE "Rock, Sea And Tree" PERFORMER "Machiavel" INDEX 01 36:47:62 TRACK 08 AUDIO TITLE "The Birds Are Gone (Bonus Track)" PERFORMER "Machiavel" INDEX 01 46:09:39 TRACK 09 AUDIO TITLE "I'm Nowhere (Bonus Track)" PERFORMER "Machiavel" INDEX 01 48:00:04
In the second half of the 1970s, Machiavel became one of Belgium's biggest bands, and for a time, their appeal expanded across Europe. Like so many prog rock groups, they started out making sophisticated, complex music and simplified their approach to a more mainstream sound by the end of the ‘70s. On their second album, Jester, however, Machiavel was still solidly in the classic symphonic prog mold. Since England was pretty much the birthplace of progressive rock as we know it, it was only natural for these Belgians to soak up some British influences, and their sound circa Jester picks its inspirations from the best of the batch; keyboardist Albert Letecheur's keyboards never approach the extremes of filigree practiced by the likes of Rick Wakeman and Keith Emerson, but they nevertheless have something undeniably in common with the graceful lead synth lines of Genesis' Tony Banks. Guitarist Jean Paul Devaux, meanwhile, punctuates the tunes with lyrical six-string statements that recall the trenchant melodic inventions of Pink Floyd's David Gilmour and Camel's Andy Latimer, and singer Mario Guccio's mix of rasp and refinement puts him solidly in the Peter Gabriel/Peter Hammill mold, as opposed to the airier realms of Jon Anderson, et al.
The band's compositional approach follows its instrumental tendencies, never showing off or engaging in anything excessively flashy, but consistently delivering carefully wrought melodies, within structures that employ just enough dynamic shifts and unconventional time signatures to keep things properly proggy. Letecheur is equally proficient on piano and synth, employing whichever makes the most musical sense, and while Guccio bears an unmistakable accent, the English lyrics never seem forced, as they sometimes do with singers from non-English-speaking nations. Two brief bonus cuts are added to the reissued version of Jester: the concise, guitar-based tracks "The Birds Are Gone" and "I'm Nowhere," both of whose hard-rocking edge hints at the direction the band would take in the future.


Трекер:  [ 22-Июн-2012 17:04 ]

  

Скачать .torrent

Размер .torrent файла 13 KB


Размер: 313 MB
Хэш (hash) релиза: 73363241a2ae92053fc14f6aebb3440a431266e2

Еще никто не оставлял запись к записи скачать торрент Machiavel - Jester . Будь первым!

!Обратная связь