Скачать через торрент музыку Big Engine - That Girl - 2009, APE бесплатно без регистрации torrent

Если у вас наблюдаются проблемы со скриншотами, переходом по ссылками, скачиванием торрентов - проблемы в блокировщике рекламы AdBlock. #хорошегоДня!


Статистика раздачи
Размер:  268 MB   |    Зарегистрирован:  5 лет 2 месяца   |    .torrent скачан:  17 раз   |   
Раздают:  1  
   
Загрузка...
 
Автор Сообщение

Galfimbul

avatar Galfimbul


Big Engine - That Girl

Жанр: Hard Rock
Страна-производитель диска: Pirat CD
Год издания: 2009
Аудиокодек: APE (*.ape)
Тип рипа: image+.cue
Битрейт аудио: lossless
Продолжительность: 35:41
Источник (релизер): Свой диск
Наличие сканов в содержимом раздачи: да
Треклист:
01. That Girl's a Freak [0:03:30.17]
02. Kings of The Rock-N-Roll Crowd [0:03:35.80]
03. No Money [0:03:39.58]
04. Wested [0:03:48.01]
05. Shake My Soul [0:03:38.40]
06. What I've Waited For [0:03:26.05]
07. I Wish I [0:03:41.52]
08. Liar Taker [0:03:04.17]
09. Give It To Me [0:03:19.04]
10. Borrowed Time [0:03:58.50]
  
Exact Audio Copy V0.99 prebeta 4 from 23. January 2008

Отчёт EAC об извлечении, выполненном 20. июня 2012, 23:06

Big Engine / That Girl

Дисковод: Optiarc DVD RW AD-7173A Adapter: 0 ID: 1

Режим чтения : ДостоверностьИспользование точного потока : ДаОтключение кэша аудио : ДаИспользование указателей C2 : Нет

Коррекция смещения при чтении : 48Способность читать области Lead-in и Lead-out : НетЗаполнение пропущенных сэмплов тишиной : ДаУдаление блоков с тишиной в начале и конце : НетПри вычислениях CRC использовались нулевые сэмплы : ДаИнтерфейс : Встроенный Win32-интерфейс для Win NT/2000

Выходной формат : Внутренние WAV-операцииФормат сэмплов : 44.100 Гц; 16 бит; стерео

TOC извлечённого CD

Трек | Старт | Длительность | Начальный сектор | Конечный сектор --------------------------------------------------------------------- 1 | 0:00.00 | 3:30.13 | 0 | 15762 2 | 3:30.13 | 3:35.60 | 15763 | 31947 3 | 7:05.73 | 3:39.44 | 31948 | 48416 4 | 10:45.42 | 3:48.01 | 48417 | 65517 5 | 14:33.43 | 3:38.30 | 65518 | 81897 6 | 18:11.73 | 3:26.04 | 81898 | 97351 7 | 21:38.02 | 3:41.39 | 97352 | 113965 8 | 25:19.41 | 3:04.13 | 113966 | 127778 9 | 28:23.54 | 3:19.03 | 127779 | 142706 10 | 31:42.57 | 3:58.38 | 142707 | 160594

Характеристики диапазона извлечения и сообщения об ошибках

Выбранный диапазон

Имя файла D:\РАЗНОЕ\Новая папка\Big Engine - That Girl.wav

Пиковый уровень 98.8 % Качество диапазона 100.0 % CRC теста 1F12F51F CRC копии 1F12F51F Копирование... OK

Ошибок не произошло

AccurateRip: сводка

Трек 1 нет в базе данныхТрек 2 нет в базе данныхТрек 3 нет в базе данныхТрек 4 нет в базе данныхТрек 5 нет в базе данныхТрек 6 нет в базе данныхТрек 7 нет в базе данныхТрек 8 нет в базе данныхТрек 9 нет в базе данныхТрек 10 нет в базе данных

Ни одного трека нет в базе AccurateRip

Конец отчёта


Трекер:  [ 22-Июн-2012 17:04 ]

  

Скачать .torrent

Размер .torrent файла 11 KB


Размер: 268 MB
Хэш (hash) релиза: ca6902f67a9f29f6016274719f4a23e3fc755388

Еще никто не оставлял запись к записи скачать торрент Big Engine - That Girl - 2009, APE . Будь первым!

!Обратная связь